Статистика раздачи
Нет
 
     
 
 

MAGNAT ®

Пол:
Мужской
Стаж:
2 года 6 месяцев
Сообщений:
11696

Откуда: Москва

Лучшие друзья собаки 2 сезон / Dog`s Best Friend
Дата/Год выпуска: 2019
Страна: Канада, студия DBF
Жанр: Документальный
Продолжительность: ~ 00:22:15 серия
Перевод: Студийный (одноголосый закадровый)
Доп. инфо о переводе: SDI-media, Анастасия Филипова
Русские субтитры: нет
Режиссер: Сара Марино / Sara Marino
Телеканал: Viasat Nature
Описание: Возможно, вы видели фотографии, на которых изображена дружба собак с черепахами, птицами и даже кошками. Программа рассказывает о реальных историях порой неожиданной, но искренней дружбы между разными животными по всему миру. Мы узнаем, как собаки дружат с дельфинами, уживаются с овцами и даже орангутангами. Необыкновенная преданность делает собак не только лучшими друзьями человека, но и различных животных.
качество: SATRip
формат: AVI
Видео: XviD. 720 х 400 пикс, ~ 1600 Кбит/сек. 25,0 кадров/сек, 0.220 Бит/(Пиксели*Кадры)
Аудио: MP3, 160 Кбит/сек Постоянный, 48,0 КГц, 2 канала

Список выпусков/серий

1серия
Собака (боксёр) и черепаха;
Лама охраняет овец;
Собака (пиринейская овчарка) и ослик;
Собака и кошка (очень мало).
2серия
Собака (ретривер) и утка;
Собака и кошка (очень мало);
Глухая лошадь и 2 альпийские козы;
Собака и попугай (очень мало).
3серия
Собака (метис, похож на лабрадора) и сокол;
Собака и кошка (очень мало);
Осёл и телёнок.
4серия
Собака (метис маремо) и коза;
Собака и черепахи (очень мало);
Кошка и ягнёнок;
Собаки и ворона (очень мало).
5серия
Собака (лабрадор) и 2 маленькие свинки;
Маленькая собака и маленькие свинки (мало);
Собака (колли) и телёнок;
Нарвал и белухи (очень мало).
6серия
Собака (джек рассел терьер) и пони;
Собака и кошка (очень мало);
Собака (спаниель) и кролик;
Черепаха и 2 свинки (очень мало).
7серия
3 собаки и кот, который дружит с ними;
лошадь и миниатюрный бычок (очень мало);
собака (лабрадор) и гепард (много повторов);
собака и индюшка (очень мало)
8серия
собака (лабрадор) и пони;
собака и морские свинки (мало);
собака (метис) и бычок;
носуха и черепаха (мало)
9серия
немецкая овчарка и норная луговая собака (суслик);
средне-азиатская овчарка и кошка (мало);
3 золотистых ретривера и белка;
маленький пони, овца и петух
10серия
собака (французский бульдог) и поросёнок;
собака (маремо) и пони;
собака и кошка (очень мало)
11серия
лиса и енот;
собака (пудель) и кошка (очень мало);
собака (доберман) и коала;
собака и хорёк (мало)
12серия:
старый чи-хуа-хуа и курица;
собака и оленёнок;
выжла (венгерская легавая) и енот;
щенок шнауцера и котёнок.

MediaInfo

Общее
Полное имя : C:\фильмы\02 возможно для раздачи\Лучшие друзья для собак 2сезон 2018г (Канада)\Лучшие друзья собак 2сезон (2018г)\2сезон 01серия_Лучшие друзья собаки.avi
Формат : AVI
Формат/Информация : Audio Video Interleave
Размер файла : 280 Мбайт
Продолжительность : 22 м.
Общий поток : 1757 Кбит/сек
Видео
Идентификатор : 0
Формат : MPEG-4 Visual
Профиль формата : Advanced Simple@L4
Параметр BVOP формата : Нет
Параметр QPel формата : Нет
Параметр GMC формата : Без точки перехода
Параметр матрицы формата : Default (H.263)
Идентификатор кодека : XVID
Идентификатор кодека/Подсказка : XviD
Продолжительность : 22 м.
Битрейт : 1587 Кбит/сек
Ширина : 720 пикселей
Высота : 400 пикселей
Соотношение сторон : 16:9
Частота кадров : 25,000 кадров/сек
Цветовое пространство : YUV
Субдискретизация насыщенности : 4:2:0
Битовая глубина : 8 бит
Тип развёртки : Прогрессивная
Метод сжатия : С потерями
Бит/(Пиксели*Кадры) : 0.220
Размер потока : 253 Мбайт (90%)
Аудио
Идентификатор : 1
Формат : MPEG Audio
Версия формата : Version 1
Профиль формата : Layer 3
Идентификатор кодека : 55
Идентификатор кодека/Подсказка : MP3
Продолжительность : 22 м.
Продолжительность оригинала : 22 м.
Вид битрейта : Постоянный
Битрейт : 160 Кбит/сек
Каналы : 2 канала
Частота : 48,0 КГц
Метод сжатия : С потерями
Размер потока : 25,5 Мбайт (9%)
Выравнивание : Соединение по промежуткам
Продолжительность промежутка : 40 мс. (1,00 видеокадр)

Скриншоты, скриншот названия, скриншот года выпуска


Профиль [ЛС]
Показать сообщения:    

Текущее время: 20-Окт 03:10

Часовой пояс: UTC ± 0



Вы не можете начинать темы
Вы не можете отвечать на сообщения
Вы не можете редактировать свои сообщения
Вы не можете удалять свои сообщения
Вы не можете голосовать в опросах
Вы не можете прикреплять файлы к сообщениям
Вы не можете скачивать файлы