Статистика раздачи
Размер:  3,48 GB   |    Зарегистрирован:  8 месяцев 15 дней   |    Скачан:  0 раз
DL-List: Нет

Полного источника не было: Никогда

 
     
 
 

MAGNAT ®

Пол:
Мужской
Стаж:
1 год 8 месяцев
Сообщений:
9096

Настоящая война / игра престолов / The Real War of Thrones
Дата/Год выпуска: 2018
Страна: Франция, France 5 Television
Жанр: Документальный, познавательный, история
Продолжительность: 6 x ~ 00:43:57
Перевод: Профессиональный (двухголосый закадровый)
Доп. инфо о переводе: СВ-Дубль
Русские субтитры: есть
Формат субтитров: softsub (SRT)
Доп. информация о субтитрах: СВ-Дубль
Режиссер: Ванесса Понте / Vanessa Pontet, Ален Брюнар / Alain Brunard
Телеканал: Культура
Описание: Продолжение эпической саги о соперничающих европейских династиях, на этот раз охватывает исторический период, ознаменованный войнами на религиозной почве и столкновениями протестантов и католиков. В XVI веке религия и власть были неразрывно связаны между собой. Второй сезон "Настоящей войны престолов" исследует династические конфликты эпохи Возрождения, отмеченные религиозными войнами, которые сформировали современную Европу. Эти братоубийственные войны между католиками и протестантами оставили неизгладимый след в истории. Сериал завершается ратификацией Нантского эдикта, который заложил основы принципов религиозной свободы и терпимости, развитие этих идей затем произошло уже в эпоху Просвещения.
качество: DVB
формат: MKV
Видео: 720x576 (16:9) AVC (H.264) Main@L3.0, ~ 1631 kbps, 25 fps
Аудио: Русский 48 kHz, MPEG Layer 2, 2 ch, ~192.00 kbps avg

Список выпусков/серий

1-я серия. Игра королев. 1542- 1559 / Game of Queens. 1542- 1559
Во времена расцвета Ренессанса совсем еще юная королева Шотландии вынуждена покинуть свою родину. Французский король держит в напряжении всю Европу и изгоняет англичан из своего королевства. А тем временем самая обширная империя Запада распадается. Европа стоит на пороге кровопролитных войн, которые продлятся целых тридцать лет.
2-я серия. Во Имя Господа. 1559- 1561 / In the Name of Good. 1559- 1561
Во второй половине XVI века религия диктовала законы. В Англии новая королева, протестантка. Королева Шотландии, ставшая королевой Франции, рискует все потерять. Король Франции не может обеспечить мир в собственном королевстве. Но вскоре произойдет событие, которое смешает все карты и по-новому раздаст престолы.
3-я серия. Европа воспламеняется. 1561-1569 / Europe Ignites. 1561-1569
Распространение протестантизма вызывает новую войну в Европе. В католической Франции правит регент. Испания борется с восстанием. В Шотландии королева рискует потерять трон ради любви. Протестантская Англия подливает масла в огонь. Все монархи Европы с трудом удерживают власть.
4-я серия. Кровавая свадьба. 1567-1574 годы / Blood Wedding. 1575-1584
Королева Англии опасается за свою жизнь. Бывшую королеву Шотландии держит в плену её кузен-протестант, и она пытается бежать. Король Франции бессилен предотвратить бойню, которая станет символом религиозных войн. Кровавое безумие постепенно охватывает Европу.
5-я серия. Братья-враги. 1575-1584 / Enemy Brothers. 1575-1584
У Франции новый король. Но в стране идет война. И брат постоянно предает его. В Англии Королева-девственница влюблена, а король Испании получает уникальную возможность увеличить свою империю. Ревность, сексуальные скандалы и предательство превратили Европу в пороховую бочку.
6-я серия. Конец династии Валуа. 1584-1594 / The Last Of The Valois. 1584-1594
Теперь французский король пытается спасти свой трон. Его сестра объявляет ему войну. Его злейший враг служит Испании. В Англии королева готовится к величайшей морской битве эпохи Возрождения. По всей Европе плетутся заговоры, ведутся битвы, и скоро прольется королевская кровь.

MediaInfo

Complete name : F:\Наладки\SD-фильмы\Настоящая война престолов_S2\01. Игра королев_ 1542-1559.mkv
Format : Matroska
Format version : Version 4
File size : 585 MiB
Duration : 43 min 57 s
Overall bit rate : 1 860 kb/s
Encoded date : UTC 2020-03-02 16:47:57
Writing application : mkvmerge v6.6.0 ('The Edge Of The In Between') built on Dec 1 2013 17:55:00
Writing library : libebml v1.3.0 + libmatroska v1.4.1
Video
ID : 1
Format : AVC
Format/Info : Advanced Video Codec
Format profile : Main@L3
Format settings : CABAC / 4 Ref Frames
Format settings, CABAC : Yes
Format settings, Reference : 4 frames
Codec ID : V_MPEG4/ISO/AVC
Bit rate : 1 631 kb/s
Width : 720 pixels
Height : 576 pixels
Display aspect ratio : 16:9
Frame rate mode : Variable
Original frame rate : 25.000 FPS
Standard : Component
Color space : YUV
Chroma subsampling : 4:2:0
Bit depth : 8 bits
Scan type : Interlaced
Scan type, store method : Separated fields
Scan order : Top Field First
Default : Yes
Forced : No
Color range : Limited
Color primaries : BT.601 PAL
Transfer characteristics : BT.470 System B/G
Matrix coefficients : BT.470 System B/G
Audio
ID : 2
Format : MPEG Audio
Format version : Version 1
Format profile : Layer 2
Codec ID : A_MPEG/L2
Codec ID/Hint : MP2
Duration : 43 min 57 s
Bit rate mode : Constant
Bit rate : 192 kb/s
Channel(s) : 2 channels
Sampling rate : 48.0 kHz
Compression mode : Lossy
Stream size : 60.4 MiB (10%)
Language : Russian
Default : Yes
Forced : No
Text
ID : 3
Format : UTF-8
Codec ID : S_TEXT/UTF8
Codec ID/Info : UTF-8 Plain Text
Title : СВ-Дубль
Language : Russian
Default : No
Forced : No
Complete name : F:\Наладки\SD-фильмы\Настоящая война престолов_S2\02. Во имя Господа_ 1559-1561.mkv
Format : Matroska
Format version : Version 4
File size : 539 MiB
Duration : 45 min 20 s
Overall bit rate : 1 663 kb/s
Encoded date : UTC 2020-03-03 16:38:22
Writing application : mkvmerge v6.6.0 ('The Edge Of The In Between') built on Dec 1 2013 17:55:00
Writing library : libebml v1.3.0 + libmatroska v1.4.1
Video
ID : 1
Format : AVC
Format/Info : Advanced Video Codec
Format profile : Main@L3
Format settings : CABAC / 4 Ref Frames
Format settings, CABAC : Yes
Format settings, Reference : 4 frames
Codec ID : V_MPEG4/ISO/AVC
Bit rate : 1 438 kb/s
Width : 720 pixels
Height : 576 pixels
Display aspect ratio : 16:9
Frame rate mode : Variable
Original frame rate : 25.000 FPS
Standard : Component
Color space : YUV
Chroma subsampling : 4:2:0
Bit depth : 8 bits
Scan type : Interlaced
Scan type, store method : Separated fields
Scan order : Top Field First
Default : Yes
Forced : No
Color range : Limited
Color primaries : BT.601 PAL
Transfer characteristics : BT.470 System B/G
Matrix coefficients : BT.470 System B/G
Audio
ID : 2
Format : MPEG Audio
Format version : Version 1
Format profile : Layer 2
Codec ID : A_MPEG/L2
Codec ID/Hint : MP2
Duration : 45 min 20 s
Bit rate mode : Constant
Bit rate : 192 kb/s
Channel(s) : 2 channels
Sampling rate : 48.0 kHz
Compression mode : Lossy
Stream size : 62.3 MiB (12%)
Language : Russian
Default : Yes
Forced : No
Text
ID : 3
Format : UTF-8
Codec ID : S_TEXT/UTF8
Codec ID/Info : UTF-8 Plain Text
Title : СВ-Дубль
Language : Russian
Default : No
Forced : No
Complete name : F:\Наладки\SD-фильмы\Настоящая война престолов_S2\03. Европа воспламеняется_ 1561-1569.mkv
Format : Matroska
Format version : Version 4
File size : 659 MiB
Duration : 44 min 3 s
Overall bit rate : 2 091 kb/s
Encoded date : UTC 2020-03-04 16:36:09
Writing application : mkvmerge v6.6.0 ('The Edge Of The In Between') built on Dec 1 2013 17:55:00
Writing library : libebml v1.3.0 + libmatroska v1.4.1
Video
ID : 1
Format : AVC
Format/Info : Advanced Video Codec
Format profile : Main@L3
Format settings : CABAC / 4 Ref Frames
Format settings, CABAC : Yes
Format settings, Reference : 4 frames
Codec ID : V_MPEG4/ISO/AVC
Bit rate : 1 857 kb/s
Width : 720 pixels
Height : 576 pixels
Display aspect ratio : 16:9
Frame rate mode : Variable
Original frame rate : 25.000 FPS
Standard : Component
Color space : YUV
Chroma subsampling : 4:2:0
Bit depth : 8 bits
Scan type : Interlaced
Scan type, store method : Separated fields
Scan order : Top Field First
Default : Yes
Forced : No
Color range : Limited
Color primaries : BT.601 PAL
Transfer characteristics : BT.470 System B/G
Matrix coefficients : BT.470 System B/G
Audio
ID : 2
Format : MPEG Audio
Format version : Version 1
Format profile : Layer 2
Codec ID : A_MPEG/L2
Codec ID/Hint : MP2
Duration : 44 min 3 s
Bit rate mode : Constant
Bit rate : 192 kb/s
Channel(s) : 2 channels
Sampling rate : 48.0 kHz
Compression mode : Lossy
Stream size : 60.5 MiB (9%)
Language : Russian
Default : Yes
Forced : No
Text
ID : 3
Format : UTF-8
Codec ID : S_TEXT/UTF8
Codec ID/Info : UTF-8 Plain Text
Title : СВ-Дубль
Language : Russian
Default : No
Forced : No
Complete name : F:\Наладки\SD-фильмы\Настоящая война престолов_S2\04. Кровавая свадьба_ 1567-1574.mkv
Format : Matroska
Format version : Version 4
File size : 608 MiB
Duration : 44 min 9 s
Overall bit rate : 1 924 kb/s
Encoded date : UTC 2020-03-05 16:37:13
Writing application : mkvmerge v6.6.0 ('The Edge Of The In Between') built on Dec 1 2013 17:55:00
Writing library : libebml v1.3.0 + libmatroska v1.4.1
Video
ID : 1
Format : AVC
Format/Info : Advanced Video Codec
Format profile : Main@L3
Format settings : CABAC / 4 Ref Frames
Format settings, CABAC : Yes
Format settings, Reference : 4 frames
Codec ID : V_MPEG4/ISO/AVC
Bit rate : 1 694 kb/s
Width : 720 pixels
Height : 576 pixels
Display aspect ratio : 16:9
Frame rate mode : Variable
Original frame rate : 25.000 FPS
Standard : Component
Color space : YUV
Chroma subsampling : 4:2:0
Bit depth : 8 bits
Scan type : Interlaced
Scan type, store method : Separated fields
Scan order : Top Field First
Default : Yes
Forced : No
Color range : Limited
Color primaries : BT.601 PAL
Transfer characteristics : BT.470 System B/G
Matrix coefficients : BT.470 System B/G
Audio
ID : 2
Format : MPEG Audio
Format version : Version 1
Format profile : Layer 2
Codec ID : A_MPEG/L2
Codec ID/Hint : MP2
Duration : 44 min 9 s
Bit rate mode : Constant
Bit rate : 192 kb/s
Channel(s) : 2 channels
Sampling rate : 48.0 kHz
Compression mode : Lossy
Stream size : 60.7 MiB (10%)
Language : Russian
Default : Yes
Forced : No
Text
ID : 3
Format : UTF-8
Codec ID : S_TEXT/UTF8
Codec ID/Info : UTF-8 Plain Text
Title : СВ-Дубль
Language : Russian
Default : No
Forced : No
Complete name : F:\Наладки\SD-фильмы\Настоящая война престолов_S2\05. Братья-враги_ 1575-1584.mkv
Format : Matroska
Format version : Version 4
File size : 584 MiB
Duration : 44 min 29 s
Overall bit rate : 1 834 kb/s
Encoded date : UTC 2020-03-11 13:03:54
Writing application : mkvmerge v6.6.0 ('The Edge Of The In Between') built on Dec 1 2013 17:55:00
Writing library : libebml v1.3.0 + libmatroska v1.4.1
Video
ID : 1
Format : AVC
Format/Info : Advanced Video Codec
Format profile : Main@L3
Format settings : CABAC / 4 Ref Frames
Format settings, CABAC : Yes
Format settings, Reference : 4 frames
Codec ID : V_MPEG4/ISO/AVC
Bit rate : 1 605 kb/s
Width : 720 pixels
Height : 576 pixels
Display aspect ratio : 16:9
Frame rate mode : Variable
Original frame rate : 25.000 FPS
Standard : Component
Color space : YUV
Chroma subsampling : 4:2:0
Bit depth : 8 bits
Scan type : Interlaced
Scan type, store method : Separated fields
Scan order : Top Field First
Default : Yes
Forced : No
Color range : Limited
Color primaries : BT.601 PAL
Transfer characteristics : BT.470 System B/G
Matrix coefficients : BT.470 System B/G
Audio
ID : 2
Format : MPEG Audio
Format version : Version 1
Format profile : Layer 2
Codec ID : A_MPEG/L2
Codec ID/Hint : MP2
Duration : 44 min 29 s
Bit rate mode : Constant
Bit rate : 192 kb/s
Channel(s) : 2 channels
Sampling rate : 48.0 kHz
Compression mode : Lossy
Stream size : 61.1 MiB (10%)
Language : Russian
Default : Yes
Forced : No
Text
ID : 3
Format : UTF-8
Codec ID : S_TEXT/UTF8
Codec ID/Info : UTF-8 Plain Text
Title : СВ-Дубль
Language : Russian
Default : No
Forced : No
Complete name : F:\Наладки\SD-фильмы\Настоящая война престолов_S2\06. Конец династии Валуа_1584-1594.mkv
Format : Matroska
Format version : Version 4
File size : 592 MiB
Duration : 45 min 32 s
Overall bit rate : 1 816 kb/s
Encoded date : UTC 2020-03-12 12:43:48
Writing application : mkvmerge v6.6.0 ('The Edge Of The In Between') built on Dec 1 2013 17:55:00
Writing library : libebml v1.3.0 + libmatroska v1.4.1
Video
ID : 1
Format : AVC
Format/Info : Advanced Video Codec
Format profile : Main@L3
Format settings : CABAC / 4 Ref Frames
Format settings, CABAC : Yes
Format settings, Reference : 4 frames
Format settings, GOP : M=4, N=28
Codec ID : V_MPEG4/ISO/AVC
Bit rate : 1 588 kb/s
Width : 720 pixels
Height : 576 pixels
Display aspect ratio : 16:9
Frame rate mode : Variable
Original frame rate : 25.000 FPS
Standard : Component
Color space : YUV
Chroma subsampling : 4:2:0
Bit depth : 8 bits
Scan type : Interlaced
Scan type, store method : Separated fields
Scan order : Top Field First
Default : Yes
Forced : No
Color range : Limited
Color primaries : BT.601 PAL
Transfer characteristics : BT.470 System B/G
Matrix coefficients : BT.470 System B/G
Audio
ID : 2
Format : MPEG Audio
Format version : Version 1
Format profile : Layer 2
Codec ID : A_MPEG/L2
Codec ID/Hint : MP2
Duration : 45 min 32 s
Bit rate mode : Constant
Bit rate : 192 kb/s
Channel(s) : 2 channels
Sampling rate : 48.0 kHz
Compression mode : Lossy
Stream size : 62.6 MiB (11%)
Language : Russian
Default : Yes
Forced : No
Text
ID : 3
Format : UTF-8
Codec ID : S_TEXT/UTF8
Codec ID/Info : UTF-8 Plain Text
Title : СВ-Дубль
Language : Russian
Default : No
Forced : No
[cybertorrent.ru].t13032.torrent 
Торрент: Зарегистрирован [ 2020-03-20 16:36 ] · 6314D53E54ECFA426DD27C945F75AD170673970B

Скачать .torrent

Скачать

18 KB

Статус: проверено
Скачан: 0 раз
Размер: 3,48 GB  ·  Тип торрента
terms.php
Профиль [ЛС]
Показать сообщения:    

Текущее время: 04-Дек 17:00

Часовой пояс: UTC ± 0



Вы не можете начинать темы
Вы не можете отвечать на сообщения
Вы не можете редактировать свои сообщения
Вы не можете удалять свои сообщения
Вы не можете голосовать в опросах
Вы не можете прикреплять файлы к сообщениям
Вы можете скачивать файлы