Статистика раздачи
Размер:  2,55 GB   |    Зарегистрирован:  8 месяцев 14 дней   |    Скачан:  0 раз
DL-List: Нет

Полного источника не было: Никогда

 
     
 
 

MAGNAT ®

Пол:
Мужской
Стаж:
1 год 8 месяцев
Сообщений:
9096

Тутанхамон: жизнь, смерть и бессмертие / Tutankhamun - Life, Death and Legacy
Дата/Год выпуска: 2019
Страна: Великобритания, Voltage TV
Жанр: Документальный, история, египтология
Продолжительность: 3 x ~ 00:47:22
Перевод: Профессиональный (двухголосый закадровый)
Доп. инфо о переводе: СВ-Дубль
Русские субтитры: есть
Формат субтитров: softsub (SRT)
Доп. информация о субтитрах: СВ-Дубль
Режиссер: Джейми Симпсон / Jamie Simpson
Телеканал: Культура
Описание: Тутанхамон был одним из самых могущественных людей на земле. Как и все фараоны, умирая, он хотел, чтобы его имя жило вечно. Но со дня его погребения до 1922 года, когда гробница была обнаружена археологом Говардом Картером, о фараоне почти забыли. Более 3.000 лет забвения. Но в ХХ веке все изменилось, и молодой фараон стал самым знаменитым египтянином в мире.
качество: DVB
формат: MKV
Видео: 720x576 (16:9) AVC (H.264) Main@L3.0, ~ 2258 kbps, 25 fps
Аудио: Русский 48 kHz, MPEG Layer 2, 2 ch, ~192.00 kbps avg

Список выпусков/серий

1-я серия.Авторы рассказывают о том, как была найдена гробница Тутанхамона, о жизни молодого царя и его родных, о том, как работали, готовили и одевались жители Древнего Египта, и как получилось, что 3 000 лет тайна жизни Тутанхамона была скрыта в песках Долины Царей.
2-я серия.Авторы откроют новые секреты молодого царя и покажут результаты трехмерного сканирования, которое раскрывает тайны захоронения Тутанхамона. Чем болел молодой фараон, почему был похоронен в такой спешке, почему гробница знаменитого царя меньше, чем гробницы других фараонов, а также о "Тут-мании", охватившей весь мир после сенсационного открытия Говарда Картера.
3-я серия. Авторы рассказывают об удивительных находках, говорящих о древних тайнах и интригах, окружавших юного царя. Имя Тутанхамона должны были забыть навсегда, что и произошло бы, но открытие 1922 года обеспечило юному фараону новый путь в бессмертие.

MediaInfo

Complete name : F:\Наладки\SD-фильмы\Тутанхамон\01. Великое открытие.mkv
Format : Matroska
Format version : Version 4
File size : 847 MiB
Duration : 47 min 22 s
Overall bit rate : 2 500 kb/s
Encoded date : UTC 2020-02-29 13:48:30
Writing application : mkvmerge v6.6.0 ('The Edge Of The In Between') built on Dec 1 2013 17:55:00
Writing library : libebml v1.3.0 + libmatroska v1.4.1
Video
ID : 1
Format : AVC
Format/Info : Advanced Video Codec
Format profile : Main@L3
Format settings : CABAC / 4 Ref Frames
Format settings, CABAC : Yes
Format settings, Reference : 4 frames
Codec ID : V_MPEG4/ISO/AVC
Bit rate : 2 258 kb/s
Width : 720 pixels
Height : 576 pixels
Display aspect ratio : 16:9
Frame rate mode : Variable
Original frame rate : 25.000 FPS
Standard : Component
Color space : YUV
Chroma subsampling : 4:2:0
Bit depth : 8 bits
Scan type : Interlaced
Scan type, store method : Separated fields
Scan order : Top Field First
Default : Yes
Forced : No
Color range : Limited
Color primaries : BT.601 PAL
Transfer characteristics : BT.470 System B/G
Matrix coefficients : BT.470 System B/G
Audio
ID : 2
Format : MPEG Audio
Format version : Version 1
Format profile : Layer 2
Codec ID : A_MPEG/L2
Codec ID/Hint : MP2
Duration : 47 min 22 s
Bit rate mode : Constant
Bit rate : 192 kb/s
Channel(s) : 2 channels
Sampling rate : 48.0 kHz
Compression mode : Lossy
Stream size : 65.1 MiB (8%)
Language : Russian
Default : Yes
Forced : No
Text
ID : 3
Format : UTF-8
Codec ID : S_TEXT/UTF8
Codec ID/Info : UTF-8 Plain Text
Title : СВ-Дубль
Language : Russian
Default : No
Forced : No
Complete name : F:\Наладки\SD-фильмы\Тутанхамон\02. Культ фараона.mkv
Format : Matroska
Format version : Version 4
File size : 845 MiB
Duration : 47 min 9 s
Overall bit rate : 2 505 kb/s
Encoded date : UTC 2020-02-29 13:49:11
Writing application : mkvmerge v6.6.0 ('The Edge Of The In Between') built on Dec 1 2013 17:55:00
Writing library : libebml v1.3.0 + libmatroska v1.4.1
Video
ID : 1
Format : AVC
Format/Info : Advanced Video Codec
Format profile : Main@L3
Format settings : CABAC / 4 Ref Frames
Format settings, CABAC : Yes
Format settings, Reference : 4 frames
Codec ID : V_MPEG4/ISO/AVC
Bit rate : 2 263 kb/s
Width : 720 pixels
Height : 576 pixels
Display aspect ratio : 16:9
Frame rate mode : Variable
Original frame rate : 25.000 FPS
Standard : Component
Color space : YUV
Chroma subsampling : 4:2:0
Bit depth : 8 bits
Scan type : Interlaced
Scan type, store method : Separated fields
Scan order : Top Field First
Default : Yes
Forced : No
Color range : Limited
Color primaries : BT.601 PAL
Transfer characteristics : BT.470 System B/G
Matrix coefficients : BT.470 System B/G
Audio
ID : 2
Format : MPEG Audio
Format version : Version 1
Format profile : Layer 2
Codec ID : A_MPEG/L2
Codec ID/Hint : MP2
Duration : 47 min 9 s
Bit rate mode : Constant
Bit rate : 192 kb/s
Channel(s) : 2 channels
Sampling rate : 48.0 kHz
Compression mode : Lossy
Stream size : 64.8 MiB (8%)
Language : Russian
Default : Yes
Forced : No
Text
ID : 3
Format : UTF-8
Codec ID : S_TEXT/UTF8
Codec ID/Info : UTF-8 Plain Text
Title : СВ-Дубль
Language : Russian
Default : No
Forced : No
Complete name : F:\Наладки\SD-фильмы\Тутанхамон\03. Проклятие мумии.mkv
Format : Matroska
Format version : Version 4
File size : 918 MiB
Duration : 47 min 55 s
Overall bit rate : 2 677 kb/s
Encoded date : UTC 2020-02-29 13:49:57
Writing application : mkvmerge v6.6.0 ('The Edge Of The In Between') built on Dec 1 2013 17:55:00
Writing library : libebml v1.3.0 + libmatroska v1.4.1
Video
ID : 1
Format : AVC
Format/Info : Advanced Video Codec
Format profile : Main@L3
Format settings : CABAC / 4 Ref Frames
Format settings, CABAC : Yes
Format settings, Reference : 4 frames
Codec ID : V_MPEG4/ISO/AVC
Bit rate : 2 432 kb/s
Width : 720 pixels
Height : 576 pixels
Display aspect ratio : 16:9
Frame rate mode : Variable
Original frame rate : 25.000 FPS
Standard : Component
Color space : YUV
Chroma subsampling : 4:2:0
Bit depth : 8 bits
Scan type : Interlaced
Scan type, store method : Separated fields
Scan order : Top Field First
Default : Yes
Forced : No
Color range : Limited
Color primaries : BT.601 PAL
Transfer characteristics : BT.470 System B/G
Matrix coefficients : BT.470 System B/G
Audio
ID : 2
Format : MPEG Audio
Format version : Version 1
Format profile : Layer 2
Codec ID : A_MPEG/L2
Codec ID/Hint : MP2
Duration : 47 min 55 s
Bit rate mode : Constant
Bit rate : 192 kb/s
Channel(s) : 2 channels
Sampling rate : 48.0 kHz
Compression mode : Lossy
Stream size : 65.8 MiB (7%)
Language : Russian
Default : Yes
Forced : No
Text
ID : 3
Format : UTF-8
Codec ID : S_TEXT/UTF8
Codec ID/Info : UTF-8 Plain Text
Title : СВ-Дубль
Language : Russian
Default : No
Forced : No
[cybertorrent.ru].t13033.torrent 
Торрент: Зарегистрирован [ 2020-03-20 16:36 ] · 16DB129F884FF33C062BB96F04C404E8A0EAAED7

Скачать .torrent

Скачать

13 KB

Статус: проверено
Скачан: 0 раз
Размер: 2,55 GB  ·  Тип торрента
terms.php
Профиль [ЛС]
Показать сообщения:    

Текущее время: 04-Дек 03:35

Часовой пояс: UTC ± 0



Вы не можете начинать темы
Вы не можете отвечать на сообщения
Вы не можете редактировать свои сообщения
Вы не можете удалять свои сообщения
Вы не можете голосовать в опросах
Вы не можете прикреплять файлы к сообщениям
Вы можете скачивать файлы