Статистика раздачи
Размер:  1,15 GB   |    Зарегистрирован:  8 месяцев 15 дней   |    Скачан:  0 раз
DL-List: Нет

Полного источника не было: Никогда

 
     
 
 

MAGNAT ®

Пол:
Мужской
Стаж:
1 год 8 месяцев
Сообщений:
9096

Блеск и слава Древнего Рима / The Ancient Splendors of Rome
Дата/Год выпуска: 2013
Страна: Южная Корея, EBS
Жанр: Документальный, история, исследования, археология
Продолжительность: 2 x ~ 00:46:14
Перевод: Студийный (одноголосый закадровый)
Доп. инфо о переводе: СВ-Дубль
Режиссер: Jae-Eung JEONG / Джае-Еунг Джеонг
Телеканал: 365
Описание: Сериал посвящен двум важнейшим памятникам богатейшей материальной культуры древнеримской эпохи, в которых были отражены ее важнейшие достижения, - самому большому амфитеатру империи Колизею и трагически погибшему городу Помпеи.
качество: DVB
формат: TS
Видео: 720x576 (16:9) AVC (H.264) Main@L3.0, ~ 1573 kbps, 25fps
Аудио: Русский 48 kHz, MPEG Layer 2, 2 ch, ~192.00 kbps avg

MediaInfo

Complete name : F:\Наладки\SD-фильмы\Блеск и слава Древнего Рима\01. Колизей - политическая арена императоров.ts
Format : MPEG-TS
File size : 615 MiB
Duration : 46 min 14 s
Overall bit rate mode : Variable
Overall bit rate : 1 859 kb/s
Video
ID : 201 (0xC9)
Menu ID : 101 (0x65)
Format : AVC
Format/Info : Advanced Video Codec
Format profile : High@L3
Format settings : CABAC / 4 Ref Frames
Format settings, CABAC : Yes
Format settings, Reference : 4 frames
Codec ID : 27
Duration : 46 min 14 s
Bit rate : 1 573 kb/s
Width : 720 pixels
Height : 576 pixels
Display aspect ratio : 16:9
Frame rate : 25.000 FPS
Standard : Component
Color space : YUV
Chroma subsampling : 4:2:0
Bit depth : 8 bits
Scan type : Interlaced
Scan type, store method : Separated fields
Scan order : Top Field First
Bits/(Pixel*Frame) : 0.152
Stream size : 520 MiB (85%)
Color range : Limited
Color primaries : BT.601 PAL
Transfer characteristics : BT.470 System B/G
Matrix coefficients : BT.470 System B/G
Audio
ID : 301 (0x12D)
Menu ID : 101 (0x65)
Format : MPEG Audio
Format version : Version 1
Format profile : Layer 2
Codec ID : 3
Duration : 46 min 14 s
Bit rate mode : Constant
Bit rate : 192 kb/s
Channel(s) : 2 channels
Sampling rate : 48.0 kHz
Frame rate : 41.667 FPS (1152 SPF)
Compression mode : Lossy
Stream size : 63.5 MiB (10%)
Language : Russian
Complete name : F:\Наладки\SD-фильмы\Блеск и слава Древнего Рима\02. Помпеи - руины империи.ts
Format : MPEG-TS
File size : 567 MiB
Duration : 46 min 14 s
Overall bit rate mode : Variable
Overall bit rate : 1 715 kb/s
Video
ID : 201 (0xC9)
Menu ID : 101 (0x65)
Format : AVC
Format/Info : Advanced Video Codec
Format profile : High@L3
Format settings : CABAC / 4 Ref Frames
Format settings, CABAC : Yes
Format settings, Reference : 4 frames
Codec ID : 27
Duration : 46 min 14 s
Bit rate : 1 436 kb/s
Width : 720 pixels
Height : 576 pixels
Display aspect ratio : 16:9
Frame rate : 25.000 FPS
Standard : Component
Color space : YUV
Chroma subsampling : 4:2:0
Bit depth : 8 bits
Scan type : Interlaced
Scan type, store method : Separated fields
Scan order : Top Field First
Bits/(Pixel*Frame) : 0.139
Stream size : 475 MiB (84%)
Color range : Limited
Color primaries : BT.601 PAL
Transfer characteristics : BT.470 System B/G
Matrix coefficients : BT.470 System B/G
Audio
ID : 301 (0x12D)
Menu ID : 101 (0x65)
Format : MPEG Audio
Format version : Version 1
Format profile : Layer 2
Codec ID : 3
Duration : 46 min 14 s
Bit rate mode : Constant
Bit rate : 192 kb/s
Channel(s) : 2 channels
Sampling rate : 48.0 kHz
Frame rate : 41.667 FPS (1152 SPF)
Compression mode : Lossy
Stream size : 63.5 MiB (11%)
Language : Russian

Содержание

01. Колизей - политическая арена императоров / The Colosseum - The political stage of emperors
Его строительство велось на протяжении восьми лет. За всю свою долгую историю такой роскоши и великолепия Рим еще не видел. Новый амфитеатр императора - Колизей - величайшее здание из всех, построенных человеком. Он был создан не только для проведения кровавых игр, но и служил политической ареной императоров.
02. Помпеи - руины империи / Pompeii - the remnants of an empire
Время остановилось в Помпеях 24 августа 79 года н.э., когда началось извержение Везувия. В одно мгновение на Помпеи обрушились миллионы тонн вулканического пепла и камней. Город и его обитатели оказались погребены под ними.

Скриншоты 1047x576


[cybertorrent.ru].t13045.torrent 
Торрент: Зарегистрирован [ 2020-03-20 16:44 ] · 1D990DE1E9FA83F511B35A1907A100A3CA633735

Скачать .torrent

Скачать

12 KB

Статус: проверено
Скачан: 0 раз
Размер: 1,15 GB  ·  Тип торрента
terms.php
Профиль [ЛС]
Показать сообщения:    

Текущее время: 04-Дек 17:25

Часовой пояс: UTC ± 0



Вы не можете начинать темы
Вы не можете отвечать на сообщения
Вы не можете редактировать свои сообщения
Вы не можете удалять свои сообщения
Вы не можете голосовать в опросах
Вы не можете прикреплять файлы к сообщениям
Вы можете скачивать файлы