Статистика раздачи
Размер:  707 MB   |    Зарегистрирован:  8 месяцев 14 дней   |    Скачан:  0 раз
DL-List: Нет

Полного источника не было: Никогда

 
     
 
 

MAGNAT ®

Пол:
Мужской
Стаж:
1 год 8 месяцев
Сообщений:
9096

Правда о пророчествах Нострадамуса / Secrets of history: cracking the case Nostradamus, the truth about his prophecies
Дата/Год выпуска: 2012
Страна: Франция, io-Martange production
Жанр: Документальный, биография, история, мистика
Продолжительность: 00:51:59
Перевод: Профессиональный (двухголосый закадровый)
Русские субтитры: нет
Режиссер: Элоди Миале / Elodie Mialet
Описание: Нострадамус – всемирно известный предсказатель, на протяжении столетий его считали пророком Апокалипсиса. Предсказания астролога выходили за рамки эпохи и относились ко всей истории человечества. В своих загадочных текстах, написанных под звездным небом Прованса он предсказал Великую Французскую революцию, приход к власти Наполеона и Гитлера, и множество других неожиданных событий, вплоть до наших дней. Спустя пятьсот лет после смерти Нострадамуса люди продолжают искать в его пророчествах информацию о том, что будет дальше. Однако, его откровения не всегда поддаются интепретации. В чем же заключается великая тайна Нострадамуса? Как далеко он мог зайти в своих видениях, и как далеко мы готовы пойти, чтобы понять их до того, как что-то произойдет?
качество: IPTVRip
формат: AVI
Видео: 720x400 (1.80:1), 25 fps, XviD build 73 ~1699 kbps avg, 0.24 bit/pixel
Аудио: 48 kHz, AC3 Dolby Digital, 2/0 (L,R) ch, ~192.00 kbps avg

MediaInfo

Полное имя : D:\gotov\Правда о пророчествах Нострадамуса.2012.IPTVRip.avi
Формат : AVI
Формат/Информация : Audio Video Interleave
Размер файла : 707 Мбайт
Продолжительность : 51 м. 59 с.
Общий поток : 1901 Кбит/сек
Программа кодирования : VirtualDubMod 1.5.10.3 | www.virtualdub-fr.org || (build 2550/release)
Библиотека кодирования : VirtualDubMod build 2550/release
Видео
Идентификатор : 0
Формат : MPEG-4 Visual
Профиль формата : Advanced Simple@L5
Параметр BVOP формата : 2
Параметр QPel формата : Нет
Параметр GMC формата : Без точки перехода
Параметр матрицы формата : Default (H.263)
Идентификатор кодека : XVID
Идентификатор кодека/Подсказка : XviD
Продолжительность : 51 м. 59 с.
Битрейт : 1700 Кбит/сек
Ширина : 720 пикселей
Высота : 400 пикселей
Соотношение сторон : 16:9
Частота кадров : 25,000 кадров/сек
Цветовое пространство : YUV
Субдискретизация насыщенности : 4:2:0
Битовая глубина : 8 бит
Тип развёртки : Прогрессивная
Метод сжатия : С потерями
Бит/(Пиксели*Кадры) : 0.236
Размер потока : 632 Мбайт (89%)
Библиотека кодирования : XviD 73
Аудио
Идентификатор : 1
Формат : AC-3
Формат/Информация : Audio Coding 3
Расширение режима : CM (complete main)
Параметр Endianness формата : Big
Идентификатор кодека : 2000
Продолжительность : 51 м. 59 с.
Вид битрейта : Постоянный
Битрейт : 192 Кбит/сек
Каналы : 2 канала
Расположение каналов : Front: L R
Частота : 48,0 КГц
Частота кадров : 31,250 кадров/сек (1536 spf)
Метод сжатия : С потерями
Размер потока : 71,4 Мбайт (10%)
Выравнивание : Разделение по промежуткам
Продолжительность промежутка : 40 мс. (1,00 видеокадр)
Время предзагрузки промежутка : 500 мс.

Скриншоты

[cybertorrent.ru].t13051.torrent 
Торрент: Зарегистрирован [ 2020-03-20 16:48 ] · DD326E2A994271B9F36070534CF037BC1B2FC7F1

Скачать .torrent

Скачать

8 KB

Статус: проверено
Скачан: 0 раз
Размер: 707 MB  ·  Тип торрента
terms.php
Профиль [ЛС]
Показать сообщения:    

Текущее время: 04-Дек 03:52

Часовой пояс: UTC ± 0



Вы не можете начинать темы
Вы не можете отвечать на сообщения
Вы не можете редактировать свои сообщения
Вы не можете удалять свои сообщения
Вы не можете голосовать в опросах
Вы не можете прикреплять файлы к сообщениям
Вы можете скачивать файлы