Статистика раздачи
Размер:  2,29 GB   |    Зарегистрирован:  8 месяцев 15 дней   |    Скачан:  0 раз
DL-List: Нет

Полного источника не было: Никогда

 
     
 
 

MAGNAT ®

Пол:
Мужской
Стаж:
1 год 8 месяцев
Сообщений:
9096

Как Великий Шелковый путь создал мир (1-3 серия из 3) / How The Silk Road Made the World
Дата/Год выпуска: 2018
Страна: Германия, Китай, Франция
Жанр: Документальный, познавательный, история
Продолжительность: 3 х ~ 00:52:00
Перевод: Профессиональный (дублированный)
Телеканал: Viasat History
Описание: На протяжении тысячелетий на просторах Евразии торговый путь, соединяющий Восток и Запад, оказал глубокое влияние на историю. Торговля Шелкового пути помогла построить и разрушить империи, вызвать революции и глубоко затронуть цивилизации.
Человечество, каким мы его знаем, и все, что мы создали, во многом обязаны легендарному Шелковому пути. Путешествуйте во времени, чтобы увидеть эволюцию древней войны, испытать ужас Черной смерти, увидеть взрывное воздействие инноваций и пережить радикальные социальные перемены.
Отправляйтесь в драматическое историческое путешествие по Евразии и погрузитесь в увлекательные истории этого всемирно известного торгового пути. Узнайте, как Шелковый путь создал мир.
качество: HDTVRip
формат: AVI
Видео: 720x400 (1.80:1), 25 fps, XviD build 73 ~1899 kbps avg, 0.26 bit/pixel
Аудио: 48 kHz, AC3 Dolby Digital, 2/0 (L,R) ch, ~192.00 kbps avg

Список выпусков/серий

1. Война / War
Эпизод исследует, как Шелковый путь влиял на конфликты, от кавалерийской войны до пороха. 2000 лет назад, Римская империя казалась непобедимой. Однако битва при Ка́ррах, стала одним из тяжелейших военных поражений Рима, когда парфяне использовали кавалерийскую тактику в своих интересах.
Стиль кавалерийской войны, разработанный азиатскими конными лучниками, позднее будет доминировать в войне, что стало возможным благодаря нескольким инновациям и психологическому сдвигу в сторону сплоченных отрядов солдат под военным командованием. Примерно в это же время Римская империя начала желать китайского шелка. Междугородная торговля между народами Евразии не была чем-то новым; на протяжении тысячелетий подобные отношения влияли на общество.
2. Свет из тьмы / Light from Darkness
Мы исследуем, как смертельная болезнь и новая жизнь распространялись по Шелковому пути, меняя мир. Путешествие во времени, от уничтожения «Черной Смерти» до зерна, которое помогло развитию цивилизации. Когда «Черная Смерть» достигла Европы, она распространялась на 5 миль в день. Удивительным образом, чума вызвала положительные изменения для некоторых европейцев. Когда смертельная болезнь уничтожила большую часть рабочей силы Европы, дворянство было вынуждено бороться за выживших рабочих, предлагая им более высокую оплату. Родился средний класс.
Исследуем важные взлеты и падения биологической миграции в течение истории Шелкового пути. Этот эпизод исследует способ, которым живые существа, от проса до патогенного гриппа печени, достигли Европы - с драматическими последствиями.
3. Революции / Revolutions
Мы рассмотрим важные события и объекты, ставшие центром Эпохи революций, включая демократизацию знаний и становление великого города Нью-Йорка.
Распространение бумажного производства из Китая по всей Азии и за ее пределами. После изобретения первого печатного станка в 1440 году, миллионы европейцев читали напечатанное содержание на разных языках. Бумага и печатный станок демократизировали знание.
Еще одно изменение мира в торговле между Востоком и Западом было вызвано османским завоеванием Константинополя, которое заблокировало европейский доступ к Шелковому пути. Христофор Колумб искал другой путь в Азию, плывя на запад через Атлантику, а вместо этого высадился в Америке. Иезуитские миссионеры в Китае, установили тесные связи с китайской интеллигенцией и представили китайскую цивилизацию в Европе. Порох преобразовал горную промышленность и помог делать Нью-Йорк большим городом.

MediaInfo

Общее
Полное имя : D:\Запись\Шелковый путь\Шелковый.путь.2018.XviD.HDTVRip.alf62\01.Война.HDTVRip.alf62.avi
Формат : AVI
Формат/Информация : Audio Video Interleave
Размер файла : 782 Мбайт
Продолжительность : 52 м.
Общий поток : 2102 Кбит/сек
Программа кодирования : VirtualDubMod 1.5.10.3 | www.virtualdub-fr.org || (build 2550/release)
Библиотека кодирования : VirtualDubMod build 2550/release
Видео
Идентификатор : 0
Формат : MPEG-4 Visual
Профиль формата : Advanced Simple@L5
Параметр BVOP формата : 2
Параметр QPel формата : Нет
Параметр GMC формата : Без точки перехода
Параметр матрицы формата : Default (MPEG)
Идентификатор кодека : XVID
Идентификатор кодека/Подсказка : XviD
Продолжительность : 52 м.
Битрейт : 1900 Кбит/сек
Ширина : 720 пикселей
Высота : 400 пикселей
Соотношение сторон : 16:9
Частота кадров : 25,000 кадров/сек
Цветовое пространство : YUV
Субдискретизация насыщенности : 4:2:0
Битовая глубина : 8 бит
Тип развёртки : Прогрессивная
Метод сжатия : С потерями
Бит/(Пиксели*Кадры) : 0.264
Размер потока : 707 Мбайт (90%)
Библиотека кодирования : XviD 73
Аудио
Идентификатор : 1
Формат : AC-3
Формат/Информация : Audio Coding 3
Расширение режима : CM (complete main)
Параметр Endianness формата : Big
Идентификатор кодека : 2000
Продолжительность : 52 м.
Вид битрейта : Постоянный
Битрейт : 192 Кбит/сек
Каналы : 2 канала
Расположение каналов : Front: L R
Частота : 48,0 КГц
Частота кадров : 31,250 кадров/сек (1536 spf)
Метод сжатия : С потерями
Размер потока : 71,4 Мбайт (9%)
Выравнивание : Разделение по промежуткам
Продолжительность промежутка : 40 мс. (1,00 видеокадр)
Время предзагрузки промежутка : 500 мс.
[cybertorrent.ru].t13054.torrent 
Торрент: Зарегистрирован [ 2020-03-20 16:49 ] · E5BD44A2CB24E8959FA17F490A81B6BBB7170C7C

Скачать .torrent

Скачать

12 KB

Статус: проверено
Скачан: 0 раз
Размер: 2,29 GB  ·  Тип торрента
terms.php
Профиль [ЛС]
Показать сообщения:    

Текущее время: 04-Дек 17:43

Часовой пояс: UTC ± 0



Вы не можете начинать темы
Вы не можете отвечать на сообщения
Вы не можете редактировать свои сообщения
Вы не можете удалять свои сообщения
Вы не можете голосовать в опросах
Вы не можете прикреплять файлы к сообщениям
Вы можете скачивать файлы