Статистика раздачи
Размер:  698 MB   |    Зарегистрирован:  3 месяца 6 дней   |    Скачан:  0 раз

Полного источника не было: Никогда

Личеров:  3  [  0 KB/s  ]  
 
   
 
 

lopster ®

Пол:
Не указан
Стаж:
3 месяца 6 дней
Сообщений:
612

Агентство "Мечта"
Страна: Россия, Украина
Год выпуска: 2008
Жанр: иронический детектив
Продолжительность: 01:16:37
Режиссер: Георгий Шенгелия
В ролях: Евгения Бурдихина, Елена Котихина, Елена Полякова, Роман Чора, Александр Олешко, Елизавета Арзамасова, Полина Лунегова, Максим Важов, Юрий Воробьев, Андрей Ильин, Олег Кныш, Денис Меленчук, Антон Преснов, Александр Числов, Лариса Негреева-Цесляк, Айдар Закиров
Описание: История о трёх подругах. Принципиальная талантливая Женька - журналистка, практичная и боевая Катя – курсантка элитного военного училища, романтичная тихая Наташа – библиотекарь. Кажется, будущее подруг предопределено. Но неожиданный поворот судьбы заставляет девушек круто изменить свою жизнь и открыть в себе новые способности...
Все раздачи фильма: Агентство "Мечта"
Качество видео: DVDRip
Формат видео: AVI
Видео: 704x416 (1.69:1), 25 fps, XviD MPEG-4 ~1072 kbps avg, 0.15 bit/pixel
Аудио: 48 kHz, AC3 Dolby Digital, 2/0 (L,R) ch, ~192.00 kbps avg

MI

Код:Общее
Полное имя : C:\otkat\Видео\Агенстство Мечта\Agenstvo.mezta.2008.XviD.DVDRip.avi
Формат : AVI
Формат/Информация : Audio Video Interleave
Размер файла : 698 Мбайт
Продолжительность : 1 ч. 16 м.
Общий поток : 1274 Кбит/сек
Программа кодирования : FairUse Wizard - http://fairusewizard.com
Библиотека кодирования : The best and REALLY easy backup tool
Видео
Идентификатор : 0
Формат : MPEG-4 Visual
Профиль формата : Advanced Simple@L5
Параметр BVOP формата : 1
Параметр QPel формата : Нет
Параметр GMC формата : Без точки перехода
Параметр матрицы формата : Default (H.263)
Режим смешивания : Сжатый битовый поток
Идентификатор кодека : XVID
Идентификатор кодека/Подсказка : XviD
Продолжительность : 1 ч. 16 м.
Битрейт : 1073 Кбит/сек
Ширина : 704 пикселя
Высота : 416 пикселей
Соотношение сторон : 5:3
Частота кадров : 25,000 кадров/сек
Цветовое пространство : YUV
Субдискретизация насыщенности : 4:2:0
Битовая глубина : 8 бит
Тип развёртки : Прогрессивная
Метод сжатия : С потерями
Бит/(Пиксели*Кадры) : 0.146
Размер потока : 588 Мбайт (84%)
Библиотека кодирования : XviD 1.1.0 (UTC 2005-11-22)
Аудио
Идентификатор : 1
Формат : AC-3
Формат/Информация : Audio Coding 3
Расширение режима : CM (complete main)
Параметр Endianness формата : Big
Идентификатор кодека : 2000
Продолжительность : 1 ч. 16 м.
Вид битрейта : Постоянный
Битрейт : 192 Кбит/сек
Каналы : 2 канала
Расположение каналов : Front: L R
Частота : 48,0 КГц
Частота кадров : 31,250 кадров/сек (1536 spf)
Метод сжатия : С потерями
Размер потока : 105 Мбайт (15%)
Выравнивание : Разделение по промежуткам
Продолжительность промежутка : 40 мс. (1,00 видеокадр)
Время предзагрузки промежутка : 500 мс.

Скриншоты

[cybertorrent.ru].t131.torrent 
Торрент: Зарегистрирован [ 2018-02-15 13:57 ] · AB437098D81D5FA4A4F27F97AC81795D1320A6D8

Скачать .torrent

Скачать

14 KB

Статус: проверено
Скачан: 0 раз
Размер: 698 MB
Профиль [ЛС]
Показать сообщения:    

Текущее время: 21-Май 18:53

Часовой пояс: UTC ± 0



Вы не можете начинать темы
Вы не можете отвечать на сообщения
Вы не можете редактировать свои сообщения
Вы не можете удалять свои сообщения
Вы не можете голосовать в опросах
Вы не можете прикреплять файлы к сообщениям
Вы можете скачивать файлы