Чудотворцы / Miracle Workers / Сезон: 1 / Серии: 1-6 из 7 (Райан Кейс, Морис Мэрэбл, Йорма Такконе) [2019, США, комедия, WEBRip] VO (Кураж-Бамбей)

Ответить на тему
Статистика раздачи
Размер:  1,54 GB   |    Зарегистрирован:  14 часов   |    Скачан:  0 раз

Полного источника не было: Никогда

   
 
Автор Сообщение

Рамфоринх ®

Пол: Не указан

Стаж: 10 дней

Сообщений: 67

Создавать темы Вчера, в 16:11

[Цитировать]

Чудотворцы/ Miracle Workers- Год выпуска: 2019
Страна: США
Жанр: комедия
Продолжительность: ~22 минуты-Перевод:
Профессиональный (одноголосый закадровый)
Кураж-Бамбей
-Режиссёры: Райан Кейс, Морис Мэрэбл, Йорма Такконе
В ролях: Стив Бушеми, Дэниэл Рэдклифф, Джеральдин Висванатхан, Каран Сони, Саша Компере, Джон Басс, Лолли Адефоп и другие
Описание: Небесная канцелярия Бога — масштабный офис с множеством отделов и сотрудников, работающих в атмосфере цейтнота и многозадачности. Есть даже HR или же напоминающий службу технической поддержки отдел обработки молитв. Именно его служащие, ангелы Элиза и Крэйг, берутся за спасение Земли, когда приунывший Господь вдруг решает ее погубить.
Теперь у ангелов есть две недели, чтобы соединить несоединимое — двух одиноких людей в пару — и доказать, что человечество вовсе не безнадежно и достойно существования.-Качество: WEBRip
Формат: AVI
Видео: XviD, ~1600 kbps, 720x400 (16:9), 23.976 fps
Аудио: 48 kHz, MPEG Layer 3, 2 ch, 192 kbps
Субтитры: отсутствуют-Реклама любого вида ОТСУТСТВУЕТ!
Торрент перезалит (21.03.19) – добавлена 6 серия!
Убедительная просьба оставаться на раздаче.
- -Предыдущие и альтернативные раздачи-

Скриншоты

MediaInfo

Код:General
Complete name : Miracle-Workers-S01E01-KurajBambey-FlyVERz.avi
Format : AVI
Format/Info : Audio Video Interleave
File size : 282 MiB
Duration : 21 min 49 s
Overall bit rate : 1 805 kb/s
Writing application : Lavf52.58.0
Video
ID : 0
Format : MPEG-4 Visual
Format profile : Advanced Simple@L5
Format settings : BVOP1
Format settings, BVOP : 1
Format settings, QPel : No
Format settings, GMC : No warppoints
Format settings, Matrix : Default (H.263)
Codec ID : XVID
Codec ID/Hint : XviD
Duration : 21 min 49 s
Bit rate : 1 600 kb/s
Width : 720 pixels
Height : 400 pixels
Display aspect ratio : 16:9
Frame rate : 23.976 (24000/1001) FPS
Original frame rate : 23.976 (23976/1000) FPS
Color space : YUV
Chroma subsampling : 4:2:0
Bit depth : 8 bits
Scan type : Progressive
Compression mode : Lossy
Bits/(Pixel*Frame) : 0.232
Stream size : 250 MiB (89%)
Writing library : XviD 1.2.1
Audio
ID : 1
Format : MPEG Audio
Format version : Version 1
Format profile : Layer 3
Codec ID : 55
Codec ID/Hint : MP3
Duration : 21 min 49 s
Bit rate mode : Constant
Bit rate : 192 kb/s
Channel(s) : 2 channels
Sampling rate : 48.0 kHz
Compression mode : Lossy
Stream size : 30.0 MiB (11%)
Alignment : Aligned on interleaves
Interleave, duration : 24 ms (0.58 video frame)

Список серий

1. "2 недели" (2 Weeks)
2. "13 дней" (13 Days)
3. "12 дней" (12 Days)
4. "6 дней" (6 Days)
5. "3 дня" (3 Days)
6. "1 день" (1 Day)

7. "1 час" (1 Hour)

Внимание! Раздача ведётся путём добавления новых серий

При очередном добавлении новой серии, создаётся новый торрент.
Для того, чтобы скачать новую серию сезона, Вам необходимо сделать следующее:
1. Удалить старый торрент (лишь торрент, серии удалять не нужно).
2. Скачать новый торрент-файл и запустить его. ОБЯЗАТЕЛЬНО при этом указать клиенту путь в старую папку, где уже находятся предыдущие серии.
3. Ваш клиент производит хеширование старой папки и будет докачивать только те серии, которых у Вас ещё нет. Старые серии при этом не удаляются.

Если ваш рейтинг упадет ниже 0,3, вы не сможете скачивать торренты! Подробнее о рейтинге.

[cybertorrent.ru].t1312.torrent 
Торрент: Зарегистрирован [ Вчера, в 16:11 ] · 71C7DFB8B509EE378E6B6FB8F3E32E5C7734FB64

Скачать .torrent

Скачать

16 KB

Статус: проверено
Скачан: 0 раз
Размер: 1,54 GB
terms.php
[Профиль] [ЛС]
Показать сообщения:    
Ответить на тему

Текущее время: 23-Мар 06:35

Часовой пояс: UTC ± 0



Вы не можете начинать темы
Вы не можете отвечать на сообщения
Вы не можете редактировать свои сообщения
Вы не можете удалять свои сообщения
Вы не можете голосовать в опросах
Вы не можете прикреплять файлы к сообщениям
Вы можете скачивать файлы