Статистика раздачи
Размер:  12,17 GB   |    Зарегистрирован:  5 месяцев 5 дней   |    Скачан:  0 раз

Полного источника не было: Никогда

 
   
 
 

AleXa ®

Пол:
Не указан
Стаж:
5 месяцев 6 дней
Сообщений:
51

Футурама / Futurama [Season 6]
«The future is here!»
- Год выпуска: 2010-2011
Страна: США | Comedy Central
Жанр: мультфильм, комедия
Продолжительность: ~00:22 x26 | 26 x800 МБ
Перевод: Профессиональный (многоголосый закадровый) - LostFilm
Оригинальная дорожка: Английская
Субтитры: русские (ISFF), английские-Автор идеи: Мэтт Гроунинг
В ролях: Филипп Джей Фрай (Фрай), Туранга Лила (Лила), Бендер Бендинг Родригес (Бендер), Хьюберт Фарнсворт (Профессор), Гермес Конрад, Джон Ди Зойдберг (Доктор Зойдберг), Эми Вонг-Описание: Сериал начинается с того, что разносчик пиццы из Нью-Йорка Филипп Джей Фрай случайно, как это кажется на первый взгляд, был заморожен в криогенной камере ровно в 00 часов 00 минут 00 секунд 1 января 2000 года. Он был разморожен тысячу лет спустя, 31 декабря 2999 года, и обнаружил себя в городе будущего Нью-Нью-Йорке. Знакомясь со своей будущей коллегой Турангой Лилой, Фрай пытается избежать принудительного назначения на работу курьером, кем он и был в прошлой жизни, и внедрения ему карьерного чипа — микросхемы, вшиваемой под кожу и определяющей род занятий своего носителя. Лила, в это время работающая инспектором по раздаче профессий, догоняя Фрая, чтобы вживить ему чип, в результате выслушивания речей Фрая о его прошлой никчемной жизни курьером, отказывается от работы инспектора, которая ей не по душе, и вместе они находят очень дальнего потомка Фрая (его пра-пра-пра-…-пра-внучатого племянника) Хьюберта Фарнсворта — маразматичного 160-летнего гениального ученого-склеротика, который берет их на работу в свою небольшую компанию «Межпланетный экспресс», занимающуюся межгалактическими грузоперевозками, на должность курьера. «Межпланетный экспресс» — это маленький бизнес профессора, окупающий его гениальные, но иногда весьма сомнительные исследования и изобретения.-Релиз подготовил: uxTuaHgp
Все раздачи сериала | | BDRip 720p [2x2, LostFilm, VO-Production, Кубик в Кубе] | WEB-DL 720p [4euro]-Качество: iTunes WEB-DL 720p
Формат: MKV
Видео кодек: H.264
Аудио кодек: AC3
Видео: 1280x720, 23.976 fps, ~4Mbps
Аудио #1: AC3 2.0, 48 KHz, 192 kbps |LostFilm|
Аудио #2: AC3 5.1, 48 KHz, 384 kbps |Оригинальная дорожка|-

Список серий

  • Rebirth
  • In-A-Gadda-Da-Leela
  • Attack of the Killer App
  • Proposition Infinity
  • The Duh-Vinci Code
  • Lethal Inspection
  • The Late Philip J. Fry
  • That Darn Katz!
  • A Clockwork Origin
  • The Prisoner of Benda
  • Lrrreconcilable Ndndifferences
  • The Mutants Are Revolting
  • The Futurama Holiday Spectacular
  • Neutopia
  • Benderama
  • Ghost in the Machines
  • Law and Oracle
  • The Silence of the Clamps
  • Yo Leela Leela

  • All the Presidents' Heads

  • Möbius Dick

  • Fry am the Egg Man

  • The Tip of the Zoidberg

  • Cold Warriors

  • Overclockwise

  • Reincarnation
  • MI

    Код:Format : Matroska
    File size : 685 MiB
    Duration : 21mn 38s
    Overall bit rate : 4 425 Kbps
    Encoded date : UTC 2010-07-24 09:34:29
    Writing application : mkvmerge v2.5.3 ('Boogie') built on Mar 7 2009 15:00:41
    Writing library : libebml v0.7.7 + libmatroska v0.8.1
    Video
    ID : 1
    Format : AVC
    Format/Info : Advanced Video Codec
    Format profile : High@L3.1
    Format settings, CABAC : No
    Format settings, ReFrames : 2 frames
    Muxing mode : Container profile=Unknown@3.1
    Codec ID : V_MPEG4/ISO/AVC
    Duration : 21mn 37s
    Bit rate : 3 761 Kbps
    Width : 1 280 pixels
    Height : 720 pixels
    Display aspect ratio : 16:9
    Frame rate : 23.976 fps
    Resolution : 8 bits
    Colorimetry : 4:2:0
    Scan type : Progressive
    Bits/(Pixel*Frame) : 0.170
    Stream size : 582 MiB (85%)
    Language : English
    Color primaries : BT.709-5, BT.1361, IEC 61966-2-4, SMPTE RP177
    Transfer characteristics : BT.709-5, BT.1361
    Matrix coefficients : BT.709-5, BT.1361, IEC 61966-2-4 709, SMPTE RP177
    Audio #1
    ID : 2
    Format : AC-3
    Format/Info : Audio Coding 3
    Codec ID : A_AC3
    Duration : 21mn 38s
    Bit rate mode : Constant
    Bit rate : 192 Kbps
    Channel(s) : 2 channels
    Channel positions : Front: L R
    Sampling rate : 48.0 KHz
    Stream size : 29.7 MiB (4%)
    Title : AC3 2.0 @ 192 kbps [LostFilm]
    Language : Russian
    Audio #2
    ID : 3
    Format : AC-3
    Format/Info : Audio Coding 3
    Codec ID : A_AC3
    Duration : 21mn 38s
    Bit rate mode : Constant
    Bit rate : 384 Kbps
    Channel(s) : 6 channels
    Channel positions : Front: L C R, Side: L R, LFE
    Sampling rate : 48.0 KHz
    Stream size : 59.4 MiB (9%)
    Title : AC3 5.1 @ 384 kbps
    Language : English
    Text #1
    ID : 4
    Format : UTF-8
    Codec ID : S_TEXT/UTF8
    Codec ID/Info : UTF-8 Plain Text
    Language : Russian
    Text #2
    ID : 5
    Format : UTF-8
    Codec ID : S_TEXT/UTF8
    Codec ID/Info : UTF-8 Plain Text
    Language : English

    Внимание! Раздача ведётся путём добавления новых серий!

    Внимание! Раздача ведётся путём добавления новых серий; при каждом добавлении создётся новый торрент. Чтобы начать докачку новой серии, пользователям необходимо сделать следующее:
    1) остановить скачивание
    2) удалить старый торрент у себя из клиента (старые серии удалять не надо)
    3) скачать новый торрент и запустить его у себя в клиенте вместо старого, при этом указать клиенту путь в старую папку куда и должно происходить скачивание новых серий.
    Ваш клиент при этом должен произвести хеширование (проверку) старой папки (если не производит сам - помогите ему сделать это), и будет докачивать только те серии которых у вас ещё нет. Старые серии при этом не удаляются, а продолжают раздаваться!
    Eсли вы уже удалили старые серии, то предотвратить повторную закачку старых серий можно, отжав галочку в соответсвующих местах при запуске нового торрента.- Как закачать отдельный файл из торрента или докачать ранее пропущенные файлы торрента!
    - -Добавлена 18-я серия
    [cybertorrent.ru].t1312.torrent 
    Торрент: Зарегистрирован [ 2018-02-16 03:41 ] · C0F526768BE3234CFFFC3DD6FE446CD6B520A7AF

    Скачать .torrent

    Скачать

    63 KB

    Статус: проверено
    Скачан: 0 раз
    Размер: 12,17 GB
    Профиль [ЛС]
    Показать сообщения:    

    Текущее время: 21-Июл 11:16

    Часовой пояс: UTC ± 0



    Вы не можете начинать темы
    Вы не можете отвечать на сообщения
    Вы не можете редактировать свои сообщения
    Вы не можете удалять свои сообщения
    Вы не можете голосовать в опросах
    Вы не можете прикреплять файлы к сообщениям
    Вы можете скачивать файлы