Статистика раздачи
Размер:  9,95 GB   |    Зарегистрирован:  6 месяцев 27 дней   |    Скачан:  0 раз

Полного источника не было: Никогда

   
 

Гость ®

Пол:
Не указан

Звёздный путь: Дискавери / Star Trek: Discovery Год выпуска: 2019
Страна: США
Жанр: фантастика, боевик, драма, приключения.
Продолжительность: ~ 01:00:00
Перевод: Профессиональный (многоголосый закадровый) SDI Media
Режиссёр: Олатунде Осунсанми, Дуглас Арниокоски, Джонатан Фрейкс
В ролях: Сонекуа Мартин-Грин, Даг Джонс, Шазад Латиф, Энтони Рэпп, Джейсон Айзекс, Кеннет Митчелл, Эмили Куттс, Сара Митич
Описание: За 10 лет до начала истории, описанной в оригинальном сериале «Звёздный путь», экипаж корабля USS Discovery NCC-1031 отправляется в путешествие, чтобы изучать глубокий космос и открыть новые миры и цивилизации.

Качество: WEB-DLRip
Формат: AVI
Видео: XviD, 720x304, 23,976 fps, ~ 1999 kbps
Аудио 1: 48 kHz, AC3 Dolby Digital, 3/2 (L,C,R,l,r) + LFE ch, ~384 kbps|SDI Media|
Аудио 2: 48 kHz, AC3 Dolby Digital, 3/2 (L,C,R,l,r) + LFE ch, ~384 kbps
Субтитры: Русские [Forced | Full (Netflix)], Английские
Реклама: Отсутствует
Предыдущие и альтернативные раздачи

Релиз

Работа со звуком: Plazik

MediaInfo

Format : AVI
Format/Info : Audio Video Interleave
File size : 1.18 GiB
Duration : 1h 0mn
Overall bit rate : 2 782 Kbps
Movie name : Звездный путь. Дискавери 2х01: Брат
Director : Бёдвар (WEB-DLRip)
Writing application : VirtualDubModRus 1.5.10.2 (build 2542/release)
Comment : 26.01.2019
Video
ID : 0
Format : MPEG-4 Visual
Format profile : Advanced Simple@L5
Format settings, BVOP : 1
Format settings, QPel : No
Format settings, GMC : No warppoints
Format settings, Matrix : Default (MPEG)
Codec ID : XVID
Codec ID/Hint : XviD
Duration : 1h 0mn
Bit rate : 2 000 Kbps
Width : 720 pixels
Height : 304 pixels
Display aspect ratio : 2.40:1
Frame rate : 23.976 (24000/1001) fps
Color space : YUV
Chroma subsampling : 4:2:0
Bit depth : 8 bits
Scan type : Progressive
Compression mode : Lossy
Bits/(Pixel*Frame) : 0.381
Stream size : 870 MiB (72%)
Writing library : XviD 67
Audio #1
ID : 1
Format : AC-3
Format/Info : Audio Coding 3
Mode extension : CM (complete main)
Format settings, Endianness : Big
Codec ID : 2000
Duration : 1h 0mn
Bit rate mode : Constant
Bit rate : 384 Kbps
Channel(s) : 6 channels
Channel positions : Front: L C R, Side: L R, LFE
Sampling rate : 48.0 KHz
Frame rate : 31.250 fps (1536 spf)
Compression mode : Lossy
Stream size : 167 MiB (14%)
Alignment : Split accross interleaves
Interleave, duration : 42 ms (1.00 video frame)
Interleave, preload duratio : 500 ms
Audio #2
ID : 2
Format : AC-3
Format/Info : Audio Coding 3
Mode extension : CM (complete main)
Format settings, Endianness : Big
Codec ID : 2000
Duration : 1h 0mn
Bit rate mode : Constant
Bit rate : 384 Kbps
Channel(s) : 6 channels
Channel positions : Front: L C R, Side: L R, LFE
Sampling rate : 48.0 KHz
Frame rate : 31.250 fps (1536 spf)
Compression mode : Lossy
Stream size : 167 MiB (14%)
Alignment : Split accross interleaves
Interleave, duration : 42 ms (1.00 video frame)
Interleave, preload duratio : 500 ms

Скриншоты

Внимание! Раздача ведётся путём добавления новых серий

Внимание! Раздача ведётся путём добавления новых серий; при каждом добавлении создаётся новый торрент. Чтобы начать докачку новой серии,пользователям необходимо сделать следующее:
(1) остановить скачивание,
(2) удалить старый торрент у себя из клиента (старые серии удалять не надо),
(3) скачать новый торрент и запустить его у себя в клиенте вместо старого, при этом указать клиенту путь в старую папку куда и должнопроисходить скачивание новых серий.
Ваш клиент при этом должен произвести хеширование (проверку) старой папки (если не производит сам - помогите ему сделать это), и будет докачивать только те серии
которых у вас ещё нет. Старые серии при этом не удаляются, а продолжают раздаваться!
Eсли вы уже удалили старые серии, то предотвратить повторную закачку старых серий можно, отжав галочку в соответствующих местах при запуске нового торрента.
По возможности, желательно не удалять старые серии как можно дольше чтобы релизёр не столько продолжал раздавать старые серии, а смог сконцентрироваться на новых.
Релиз группы:
[cybertorrent.ru].t1313.torrent 
Торрент: Зарегистрирован [ 2019-03-22 16:11 ] · 0BD4400889E9F7D5B4722F73C9590AF2F69A63F8

Скачать .torrent

Скачать

30 KB

Статус: проверено
Скачан: 0 раз
Размер: 9,95 GB
terms.php
Показать сообщения:    

Текущее время: 19-Окт 04:35

Часовой пояс: UTC ± 0



Вы не можете начинать темы
Вы не можете отвечать на сообщения
Вы не можете редактировать свои сообщения
Вы не можете удалять свои сообщения
Вы не можете голосовать в опросах
Вы не можете прикреплять файлы к сообщениям
Вы можете скачивать файлы