Статистика раздачи
Размер:  1,09 GB   |    Зарегистрирован:  7 месяцев 1 день   |    Скачан:  0 раз

Полного источника не было: Никогда

   
 

Гость ®

Пол:
Не указан

Фрак для шалопая-Страна: СССР
Производство: Киностудия имени Горького
Жанр: Детский, Приключения
Год выпуска: 1979
Продолжительность: 01:05:33
Режиссёр: Эльдор Уразбаев
Сценарист: Аркадий Красильщиков Оператор: Владимир Архангельский
Композитор: Эдуард Хагагортян Художник: Галина Анфилова
В ролях: Михаил Егоров, Виктор Ильичёв, Леонид Куравлёв, Александр Лебедев, Артем Карапетян, Татьяна Ташкова, Антонина Богданова, Елизавета Никищихина, Наталья Казначеева, Николай Парфёнов, Владимир Герасимов, Владимир Тихонов, Николай Погодин, Тимур Халиков, Сережа Смирнов, Максим Пучков и другие
Описание: Двенадцатилетний Женька Грачев бежит из пионерлагеря, чтобы встретиться со своим братом, служащим в армии, которого должны перевести в другое место. В дороге он сталкивается с непутевым тридцатилетним водителем автокрана Гошей Мякишевым, которому во что бы то ни стало необходимо раздобыть фрак, чтобы провернуть одну авантюру...
-Качество видео: TVRip с: Фрак для шалопая (Эльдор Уразбаев) [1979, детский фильм, приключения, TVRip] 4.19 GB
Формат видео: AVI
Видео: 688x512 (1.34:1), 25 fps, XviD MPEG-4 ~2181 kbps avg, 0.25 bit/pixel
Аудио: 48 kHz, AC3 Dolby Digital, 2/0 (L,R) ch, ~192.00 kbps avg
Сэмпл: http://multi-up.com/1207241

MediaInfo

Код:Общее
Полное имя : Фрак для шалопая (Эльдор Уразбаев) [1979, детский фильм, приключения, TVRip].avi
Формат : AVI
Формат/Информация : Audio Video Interleave
Размер файла : 1,09 Гбайт
Продолжительность : 1 ч. 5 м.
Общий поток : 2383 Кбит/сек
Название фильма : Фрак для Шалопая
Режиссёр : Эльдор Уразбаев
Жанр : Child's
Программа кодирования : VirtualDubMod 1.5.10.2 (build 2540/release)
Формат оригинала/Имя : Movie
Правообладатель : СССР
Примечание : DVDRip by MonteKryu
Видео
Идентификатор : 0
Формат : MPEG-4 Visual
Профиль формата : Advanced Simple@L5
Параметр BVOP формата : 2
Параметр QPel формата : Нет
Параметр GMC формата : Без точки перехода
Параметр матрицы формата : Default (MPEG)
Идентификатор кодека : XVID
Идентификатор кодека/Подсказка : XviD
Продолжительность : 1 ч. 5 м.
Битрейт : 2182 Кбит/сек
Ширина : 688 пикселей
Высота : 512 пикселей
Соотношение сторон : 4:3
Частота кадров : 25,000 кадров/сек
Цветовое пространство : YUV
Субдискретизация насыщенности : 4:2:0
Битовая глубина : 8 бит
Тип развёртки : Прогрессивная
Метод сжатия : С потерями
Бит/(Пиксели*Кадры) : 0.248
Размер потока : 1023 Мбайт (92%)
Библиотека кодирования : XviD 64
Аудио
Идентификатор : 1
Формат : AC-3
Формат/Информация : Audio Coding 3
Расширение режима : CM (complete main)
Параметр Endianness формата : Big
Идентификатор кодека : 2000
Продолжительность : 1 ч. 5 м.
Вид битрейта : Постоянный
Битрейт : 192 Кбит/сек
Каналы : 2 канала
Расположение каналов : Front: L R
Частота : 48,0 КГц
Битовая глубина : 16 бит
Метод сжатия : С потерями
Размер потока : 90,0 Мбайт (8%)
Выравнивание : Разделение по промежуткам
Продолжительность промежутка : 40 мс. (1,00 видеокадр)
Время предзагрузки промежутка : 500 мс.

Скриншоты

[cybertorrent.ru].t132.torrent 
Торрент: Зарегистрирован [ 2019-03-18 10:04 ] · 607E2B101CB912F2C58150FD25E8EC36281EC176

Скачать .torrent

Скачать

11 KB

Статус: проверено
Скачан: 0 раз
Размер: 1,09 GB
terms.php
Показать сообщения:    

Текущее время: 20-Окт 01:58

Часовой пояс: UTC ± 0



Вы не можете начинать темы
Вы не можете отвечать на сообщения
Вы не можете редактировать свои сообщения
Вы не можете удалять свои сообщения
Вы не можете голосовать в опросах
Вы не можете прикреплять файлы к сообщениям
Вы можете скачивать файлы