Человек из Баттон Уиллоу / The Man from Button Willow (Дэвид Детидж / David Detiege) [1965, США, приключения, семейный, вестерн, DVDRip] AVO (Гаврилов) + Original Eng

Ответить на тему
Статистика раздачи
Размер:  811 MB   |    Зарегистрирован:  14 часов   |    Скачан:  0 раз

Полного источника не было: Никогда

   
 
Автор Сообщение

karlll ®

Пол: Не указан

Стаж: 10 дней

Сообщений: 50

Создавать темы Вчера, в 16:10

[Цитировать]

Человек из Баттон Уиллоу / The Man from Button Willow
Страна: США
Жанр: приключения, семейный, вестерн
Продолжительность: 01:20:34
Год выпуска: 1965
Перевод: Авторский (одноголосый закадровый) Андрея Гаврилова
Оригинальная аудиодорожка: английский
Русские субтитры: нет
Режиссёр: Дэвид Детидж /David Detiege/
Роли озвучивали: Дэйл Робертсон /Dale Robertson/... Justin Eagle, Эдгар Бьюкенен /Edgar Buchanan/... Sorry, Барбара Джин Вонг /Barbara Jean Wong/... Stormy, Хершел Бернарди /Herschel Bernardi/... The Captain / Saloon Man#1, Росс Мартин /Ross Martin/... Andy Svenson, Пинто Колвиг /Pinto Colvig/... Abner Hawkins / Animal Sounds / Man on Trolly / Laughing Saloon Man, Кларенс Нэш /Clarence Nash/... Senator Freeman / Mountain Lion, Бак Бьюкэнэн /Buck Buchanan/... News Boy / Boy, Верна Фелтон /Verna Felton/... Mrs.Pomeroy / Mother / Lady on Trolley
Описание: Вскоре после Гражданской войны, правительство страны решило соединить западное и восточное побережье огромной железной дорогой, самой большой в мире. проблем было много - погода, земля, индейцы. но одна из самых главных проблем была группа людей, которых называли земельные пираты. они скупали земли перед железной дорогой, а потом заставляли правительство платить фантастические деньги. этих людей возглавлял человек по имени Монтгомери Блейн. чтобы их остановить правительство послало сенатора Фримана, чтобы расследовать всю эту историю. но сенатор не вернулся. для того чтобы спасти его правительство послало несколько человек на его поиски. одним из них был Джастин Игл, которого звали просто "Человеком из города Баттон Уиллоу"...
Доп. информация: исходник из сг любезно выкачал и прислал dffdfdfd; Гаврилова оцифровал и подготовил karlll
отсутствующий на кассете эпизод ~08:00~12:40 без перевода
Качество: DVDRip ~семпл~
Формат: AVI
Видео: 640x480 (1.33:1), 23.976 fps, XviD 1.1 beta 2 (build 39) ~1072 kbps avg, 0.14 bit/pixel
Аудио 1: 48 kHz, AC3 Dolby Digital, 2/0 (L,R) ch, ~192 kbps - Гаврилов
Аудио 2: 48 kHz, MPEG Layer 3, 2 ch, ~128.00 kbps avg - english
Субтитры: "отсутствуют"

Подробные технические данные

Format : AVI
Format/Info : Audio Video Interleave
File size : 811 MiB
Duration : 1 h 20 min
Overall bit rate : 1 407 kb/s
Movie name : The Man from Button Willow_1965
Writing application : VirtualDubMod 1.5.10.3 | www.virtualdub-fr.org || (build 2550/release)
Writing library : VirtualDubMod build 2550/release
Copyright : KBC
Video
ID : 0
Format : MPEG-4 Visual
Format profile : Advanced Simple@L5
Format settings : BVOP2
Format settings, BVOP : 2
Format settings, QPel : No
Format settings, GMC : No warppoints
Format settings, Matrix : Default (MPEG)
Codec ID : XVID
Codec ID/Hint : XviD
Duration : 1 h 20 min
Bit rate : 1 073 kb/s
Width : 640 pixels
Height : 480 pixels
Display aspect ratio : 4:3
Frame rate : 23.976 (24000/1001) FPS
Color space : YUV
Chroma subsampling : 4:2:0
Bit depth : 8 bits
Scan type : Progressive
Compression mode : Lossy
Bits/(Pixel*Frame) : 0.146
Stream size : 618 MiB (76%)
Writing library : XviD 1.1.0 Beta2 (UTC 2005-04-04)
Audio #1
ID : 1
Format : AC-3
Format/Info : Audio Coding 3
Commercial name : Dolby Digital
Codec ID : 2000
Duration : 1 h 20 min
Bit rate mode : Constant
Bit rate : 192 kb/s
Channel(s) : 2 channels
Channel layout : L R
Sampling rate : 48.0 kHz
Frame rate : 31.250 FPS (1536 SPF)
Bit depth : 16 bits
Compression mode : Lossy
Stream size : 111 MiB (14%)
Alignment : Split accross interleaves
Interleave, duration : 42 ms (1.00 video frame)
Interleave, preload duration : 500 ms
Title : Гаврилов
Service kind : Complete Main
Audio #2
ID : 2
Format : MPEG Audio
Format version : Version 1
Format profile : Layer 3
Format settings : Joint stereo / MS Stereo
Codec ID : 55
Codec ID/Hint : MP3
Duration : 1 h 20 min
Bit rate mode : Constant
Bit rate : 128 kb/s
Channel(s) : 2 channels
Sampling rate : 48.0 kHz
Frame rate : 41.667 FPS (1152 SPF)
Compression mode : Lossy
Stream size : 73.8 MiB (9%)
Alignment : Aligned on interleaves
Interleave, duration : 42 ms (1.00 video frame)
Interleave, preload duration : 504 ms
Title : english
Writing library : LAME3.96r
Encoding settings : -m j -V 4 -q 2 -lowpass 17.5 -b 128

Скриншоты

Если ваш рейтинг упадет ниже 0,3, вы не сможете скачивать торренты! Подробнее о рейтинге.

[cybertorrent.ru].t1329.torrent 
Торрент: Зарегистрирован [ Вчера, в 16:11 ] · 4CA357CB8F6FC38E407A506FB0880FB9EFC26F1A

Скачать .torrent

Скачать

16 KB

Статус: проверено
Скачан: 0 раз
Размер: 811 MB
terms.php
[Профиль] [ЛС]
Показать сообщения:    
Ответить на тему

Текущее время: 23-Мар 07:01

Часовой пояс: UTC ± 0



Вы не можете начинать темы
Вы не можете отвечать на сообщения
Вы не можете редактировать свои сообщения
Вы не можете удалять свои сообщения
Вы не можете голосовать в опросах
Вы не можете прикреплять файлы к сообщениям
Вы можете скачивать файлы