Статистика раздачи
Размер:  700 MB   |    Зарегистрирован:  3 месяца 9 дней   |    Скачан:  0 раз

Полного источника не было: Никогда

 
   
 
 

lopster ®

Пол:
Не указан
Стаж:
3 месяца 9 дней
Сообщений:
612

Скоро весна
Год выпуска: 2009
Жанр: драма
Продолжительность: 01:27:38
Режиссер: Вера Сторожева
В ролях:Ксения Кутепова,Сергей Пускепалис,Мария Букнис,Дмитрий Чернов,Николай Либиков,Ольга Попова
Описание: Действие фильма разворачивается на подворье вдали от города. Это место, где прибился десяток людей со своей историей и непосредственной судьбой. Место, где сталкиваются высокое и низкое, где последние имеют шанс стать первыми, а первые могут стать последними. Управляет этим хозяйством матушка Екатерина. Помогает ей справляться юная послушница Оля, неуклюже простодушная, восхищенная и преданная. Катерина вытащила ее из детского дома. Однажды на подворье появился Паша — возмутитель спокойствия. Словно хозяин жизни, он еще не знает, что смертельно болен. Единственный, кто почувствовал в нем болезнь, это Оля, которая пожалела и полюбила его своей наивной детской душой. Она смогла ему помочь. И жизнь возвращается к нему с весной, как вечное обновление.
Все раздачи фильма: Скоро весна
Качество: DVDRip
Формат: AVI
Видео кодек: XviD
Аудио кодек: MP3
Видео: Xvid 640x336 25.00fps 978Kbps
Аудио: MPEG Audio Layer 3 48000Hz stereo 128Kbps
Скачать СЭМПЛ

MI

Код:Общее
Полное имя : C:\otkat\Видео\Скоро весна\Skoro.vesna.700m.2009.DVDRip.avi
Формат : AVI
Формат/Информация : Audio Video Interleave
Размер файла : 700 Мбайт
Продолжительность : 1 ч. 27 м.
Общий поток : 1116 Кбит/сек
Программа кодирования : VirtualDubMod 1.5.10.2 (build 2540/release)
Библиотека кодирования : VirtualDubMod build 2540/release
Видео
Идентификатор : 0
Формат : MPEG-4 Visual
Профиль формата : Advanced Simple@L5
Параметр BVOP формата : 2
Параметр QPel формата : Нет
Параметр GMC формата : Без точки перехода
Параметр матрицы формата : Default (MPEG)
Режим смешивания : Сжатый битовый поток
Идентификатор кодека : XVID
Идентификатор кодека/Подсказка : XviD
Продолжительность : 1 ч. 27 м.
Битрейт : 979 Кбит/сек
Ширина : 640 пикселей
Высота : 336 пикселей
Соотношение сторон : 1,905
Частота кадров : 25,000 кадров/сек
Цветовое пространство : YUV
Субдискретизация насыщенности : 4:2:0
Битовая глубина : 8 бит
Тип развёртки : Прогрессивная
Метод сжатия : С потерями
Бит/(Пиксели*Кадры) : 0.182
Размер потока : 613 Мбайт (88%)
Библиотека кодирования : XviD 1.2.1 (UTC 2008-12-04)
Аудио
Идентификатор : 1
Формат : MPEG Audio
Версия формата : Version 1
Профиль формата : Layer 3
Режим : Joint stereo
Расширение режима : MS Stereo
Идентификатор кодека : 55
Идентификатор кодека/Подсказка : MP3
Продолжительность : 1 ч. 27 м.
Вид битрейта : Постоянный
Битрейт : 128 Кбит/сек
Каналы : 2 канала
Частота : 48,0 КГц
Метод сжатия : С потерями
Размер потока : 80,2 Мбайт (11%)
Выравнивание : Соединение по промежуткам
Продолжительность промежутка : 40 мс. (1,00 видеокадр)
Время предзагрузки промежутка : 504 мс.

Скриншоты


[cybertorrent.ru].t133.torrent 
Торрент: Зарегистрирован [ 2018-02-15 13:57 ] · 20E56D4A362582C94ABA8277816C5B5AD785342D

Скачать .torrent

Скачать

14 KB

Статус: проверено
Скачан: 0 раз
Размер: 700 MB
Профиль [ЛС]
Показать сообщения:    

Текущее время: 25-Май 08:54

Часовой пояс: UTC ± 0



Вы не можете начинать темы
Вы не можете отвечать на сообщения
Вы не можете редактировать свои сообщения
Вы не можете удалять свои сообщения
Вы не можете голосовать в опросах
Вы не можете прикреплять файлы к сообщениям
Вы можете скачивать файлы