BitTorrent клиенты



Triggerfinger • Deichbrand Festival [2014, Hard rock, Blues rock, HDTV 720p]

Ответить на тему
Статистика раздачи
Размер:  5,22 GB   |    Зарегистрирован:  11 месяцев   |    Скачан:  0 раз

Полного источника не было: Никогда

 
   
 
 
Автор Сообщение

craft ®

Пол: Не указан

Стаж: 1 год

Сообщений: 727

Создавать темы 23-Фев-2018 00:38

[Цитировать]


Triggerfinger



Жанр: Hard rock, Blues rock
Продолжительность: 00:56:21
Год выпуска: 2014
Качество: HDTV 720p
Контейнер: TS
Видео кодек: H.264
Аудио кодек: AC3
Видео: MPEG4 Video (H264) 1280x720 50fps 12.1 Mbps
Аудио: Dolby AC3 48000Hz stereo 448kbps

Треклист

01.Game
02.By Absence of the Sun
03.On My Knees
04.Perfect Match
05.My Baby's Got a Gun
06.Camaro
07.Let It Ride
08.All This Dancin' Around
09.Cherry

Отчёт MediaInfo / BDInfo

General
ID : 1 (0x1)
Complete name : L:\Triggerfinger - Deichbrand Festival 2014.ts
Format : MPEG-TS
File size : 5.22 GiB
Duration : 56mn 21s
Overall bit rate mode : Variable
Overall bit rate : 13.2 Mbps
Video
ID : 5421 (0x152D)
Menu ID : 1 (0x1)
Format : AVC
Format/Info : Advanced Video Codec
Format profile : High@L4.0
Format settings, CABAC : Yes
Format settings, ReFrames : 4 frames
Codec ID : 27
Duration : 56mn 21s
Bit rate : 12.1 Mbps
Width : 1 280 pixels
Height : 720 pixels
Display aspect ratio : 16:9
Frame rate : 50.000 fps
Color space : YUV
Chroma subsampling : 4:2:0
Bit depth : 8 bits
Scan type : Progressive
Bits/(Pixel*Frame) : 0.264
Stream size : 4.78 GiB (92%)
Audio
ID : 5426 (0x1532)
Menu ID : 1 (0x1)
Format : AC-3
Format/Info : Audio Coding 3
Mode extension : CM (complete main)
Format settings, Endianness : Big
Codec ID : 6
Duration : 56mn 21s
Bit rate mode : Constant
Bit rate : 448 Kbps
Channel(s) : 2 channels
Channel positions : Front: L R
Sampling rate : 48.0 KHz
Bit depth : 16 bits
Compression mode : Lossy
Stream size : 181 MiB (3%)
Language : German
[cybertorrent.ru].t13378.torrent 
Торрент: Зарегистрирован [ 2018-02-23 00:40 ] · AB46B805E837D71210654E51AACE784FAFC8A160

Скачать .torrent

Скачать

14 KB

Статус: проверено
Скачан: 0 раз
Размер: 5,22 GB
terms.php
[Профиль] [ЛС]
Показать сообщения:    
Ответить на тему

Текущее время: 22-Фев 03:15

Часовой пояс: UTC + 3



Вы не можете начинать темы
Вы не можете отвечать на сообщения
Вы не можете редактировать свои сообщения
Вы не можете удалять свои сообщения
Вы не можете голосовать в опросах
Вы не можете прикреплять файлы к сообщениям
Вы можете скачивать файлы