Статистика раздачи
Размер:  313 MB   |    Зарегистрирован:  5 месяцев 2 дня   |    Скачан:  0 раз

Полного источника не было: Никогда

 
   
 
 

safari ®

Пол:
Мужской
Стаж:
5 месяцев 6 дней
Сообщений:
98

Frog Pond - Nature Recordings and Sounds of Frogs
Жанр: Звуки природы
Страна: US
Год издания: 2011 (Original Release Date: February 1, 2003)
Аудиокодек: FLAC (*.flac)
Тип рипа: image+.cue
Битрейт аудио: lossless
Продолжительность: 1:08:00
Наличие сканов в содержимом раздачи: нет
Источник: собственный диск
Треклист:
1. Frogs and Stream Relaxation Nature Sounds
2. Frogs In Summer Nature Sounds
3. Frogs and Rain Stress Reduction Nature Sounds
Примечания:
: диск куплен на амазоне, там же есть крохотное превью
: на диске полностью отсутствует информация - не указаны лейбл и #каталога, год издания
: есть только надпись - "the conrad askland nature sound collection" на обложке
: также есть надпись над штрих-кодом - manufactured by amazon.com
: на самом амазоне лейблом указан Conrad Askland

EAC

Exact Audio Copy V1.0 beta 3 from 29. August 2011
Отчёт EAC об извлечении, выполненном 29. июня 2014, 19:34
Nature's Music / Frog Pond
Дисковод: ATAPI DVD D DH16D2P Adapter: 0 ID: 1
Режим чтения : Достоверность
Использование точного потока : Да
Отключение кэша аудио : Да
Использование указателей C2 : Нет
Коррекция смещения при чтении : 6
Способность читать области Lead-in и Lead-out : Нет
Заполнение пропущенных сэмплов тишиной : Да
Удаление блоков с тишиной в начале и конце : Нет
При вычислениях CRC использовались нулевые сэмплы : Да
Интерфейс : Встроенный Win32-интерфейс для Win NT/2000
Выходной формат : Внутренние WAV-операции
Формат сэмплов : 44.100 Гц; 16 бит; стерео
TOC извлечённого CD
Трек | Старт | Длительность | Начальный сектор | Конечный сектор
---------------------------------------------------------------------
1 | 0:00.00 | 22:36.33 | 0 | 101732
2 | 22:36.33 | 22:45.28 | 101733 | 204135
3 | 45:21.61 | 22:38.22 | 204136 | 306007
Характеристики диапазона извлечения и сообщения об ошибках
Выбранный диапазон
Имя файла E:\ripped\own\Nature's Music - Frog Pond.wav
Пиковый уровень 100.0 %
Скорость извлечения 3.6 X
Качество диапазона 100.0 %
CRC теста 042E1D68
CRC копии 042E1D68
Копирование... OK
Ошибок не произошло
AccurateRip: сводка
Трек 1 отсутствует в базе данных
Трек 2 отсутствует в базе данных
Трек 3 отсутствует в базе данных
Ни одного трека нет в базе AccurateRip
Конец отчёта
==== Контрольная сумма отчёта 0F6AED61E693C26C58F2AE41E998D07658142C0EE8969F3CD32832C04CDB324A ====

audiochecker

AUDIOCHECKER v2.0 beta (build 457) - by Dester - opdester@freemail.hu
~~~~~~~~~~~~~~~~~~~~~~~~~~~~~~~~~~
-=== DO NOT EDIT THIS FILE! ===-
Path: ...\2003 - Frog Pond
1 -=- Frog Pond.flac -=- CDDA (100%)
26707236
[cybertorrent.ru].t13378.torrent 
Торрент: Зарегистрирован [ 2018-02-20 12:55 ] · AD73B84D071E3C8D196CA9941BA0556667EF6FE6

Скачать .torrent

Скачать

13 KB

Статус: проверено
Скачан: 0 раз
Размер: 313 MB
Профиль [ЛС]
Показать сообщения:    

Текущее время: 22-Июл 18:25

Часовой пояс: UTC ± 0



Вы не можете начинать темы
Вы не можете отвечать на сообщения
Вы не можете редактировать свои сообщения
Вы не можете удалять свои сообщения
Вы не можете голосовать в опросах
Вы не можете прикреплять файлы к сообщениям
Вы можете скачивать файлы