Статистика раздачи
Размер:  1,46 GB   |    Зарегистрирован:  6 месяцев 25 дней   |    Скачан:  0 раз

Полного источника не было: 6 месяцев 10 дней

   
 

Гость ®

Пол:
Не указан

Бедные родственники
Год выпуска: 2005
Страна: Россия, Франция
Жанр: трагикомедия
Продолжительность: 01:46:38.160 (159954 frames)
Субтитры: нет
Режиссер: Павел Лунгин
В ролях: Константин Хабенский, Леонид Каневский, Сергей Гармаш, Наталья Коляканова, Эстер Горентен, Отто Таузиг, Миглен Мирчев, Грегуар Лепренс-Ринге, Марина Голуб, Даниил Спиваковский, Александр Ильин, Петр Солдатов, Елена Галибина, Евгения Дмитриева, Константин Воробьёв, Михаил Парыгин, Марианна Шульц, Владимир Сальников, Филипп Иванченко, Игорь Жуков, Екатерина Кибовская, Екатерина Барымова, Варвара Никитина
Описание: Действие фильма происходит в наши дни в маленьком южном городке, на территории бывшего СССР. Главный герой — Эдик Летов — помогает людям разыскивать родственников. Находит он их в Канаде, Израиле, Швейцарии. Для Эдика это — бизнес, и бизнес безотказный. Если настоящие родственники не находятся, Эдик организует "замену". И вроде всё в его маленькой фирме идет хорошо. Но так как "заменяющие" - люди одинокие, то на своих зарубежных гостей они изливают столько любви и тепла, что те и подумать не могут о подмене — и проникаются ответным чувством…
Качество: WEBRip
Формат: AVI
Видео кодек: XviD
Аудио кодек: АС3
Видео: 720x400 (1.80:1), 25 fps, XviD build 73 ~1753 kbps avg, 0.24 bit/pixel
Аудио: 48 kHz, AC3 Dolby Digital, 2/0 (L,R) ch, ~192.00 kbps avg

Медиаинфо

General
Complete name : E:\004 Мои раздачи\Бедные родственники 1,46\bednye_rodstvenniki_1.46_by_bm11.avi
Format : AVI
Format/Info : Audio Video Interleave
File size : 1.46 GiB
Duration : 1h 46mn
Overall bit rate : 1 956 Kbps
Director : bm11
Writing application : VirtualDubMod 1.5.10.3 | www.virtualdub-fr.org || (build 2550/release)
Video
ID : 0
Format : MPEG-4 Visual
Format profile : Advanced Simple@L5
Format settings, BVOP : 1
Format settings, QPel : No
Format settings, GMC : No warppoints
Format settings, Matrix : Custom
Codec ID : XVID
Codec ID/Hint : XviD
Duration : 1h 46mn
Bit rate : 1 754 Kbps
Width : 720 pixels
Height : 400 pixels
Display aspect ratio : 16:9
Frame rate : 25.000 fps
Color space : YUV
Chroma subsampling : 4:2:0
Bit depth : 8 bits
Scan type : Progressive
Compression mode : Lossy
Bits/(Pixel*Frame) : 0.244
Stream size : 1.31 GiB (90%)
Writing library : XviD 73
Audio
ID : 1
Format : AC-3
Format/Info : Audio Coding 3
Mode extension : CM (complete main)
Format settings, Endianness : Big
Codec ID : 2000
Duration : 1h 46mn
Bit rate mode : Constant
Bit rate : 192 Kbps
Channel(s) : 2 channels
Channel positions : Front: L R
Sampling rate : 48.0 KHz
Frame rate : 31.250 fps (1536 spf)
Compression mode : Lossy
Stream size : 146 MiB (10%)
Alignment : Split accross interleaves
Interleave, duration : 40 ms (1.00 video frame)
Interleave, preload duratio : 500 ms
[cybertorrent.ru].t1339.torrent 
Торрент: Зарегистрирован [ 2019-03-22 16:11 ] · A1B5BDB8C5DE602C5E948905041FDF9DC2811103

Скачать .torrent

Скачать

15 KB

Статус: проверено
Скачан: 0 раз
Размер: 1,46 GB
terms.php
Показать сообщения:    

Текущее время: 17-Окт 08:48

Часовой пояс: UTC ± 0



Вы не можете начинать темы
Вы не можете отвечать на сообщения
Вы не можете редактировать свои сообщения
Вы не можете удалять свои сообщения
Вы не можете голосовать в опросах
Вы не можете прикреплять файлы к сообщениям
Вы можете скачивать файлы