Статистика раздачи
Размер:  2,18 GB   |    Зарегистрирован:  6 месяцев 27 дней   |    Скачан:  0 раз
Сидов:  386  [  0 KB/s  ]   Личеров:  12  [  0 KB/s  ]  
   
 

солнышко ®

Пол:
Не указан
Стаж:
7 месяцев 6 дней
Сообщений:
565

Капернаум / Capharnaüm- Страна: Ливан, Франция, США
Жанр: драма
Год выпуска: 2018
Продолжительность: 02:05:53
Перевод: Профессиональный (многоголосый закадровый)
Субтитры: нет
Оригинальная аудиодорожка: нет-Режиссер: Надин Лабаки / Nadine Labaki-В ролях: Зейн Аль Раффеа, Йорданос Шифероу, Болуватифе Банколе, Кавсар Аль Хаддад, Фади Юсеф, Хаита Иззам, Алаа Шушниех, Надин Лабаки, Елиас Хури, Нур Эль Хуссейни
Описание: Двенадцатилетний Зейн не может точно сказать, сколько у него братьев и сестер, но уверен, что детей в его семье должно было быть меньше. Несмотря на юный возраст, Зейн нелегально работает, помогает старшим, ищет деньги и документы на эмиграцию в Швецию. Он смотрит на мир с нескрываемой ненавистью. Ему есть что ненавидеть. Дети на улицах Бейрута попрошайничают, девочек как можно раньше продают замуж, сам он вынужден есть что попало, спать, где придется, и самое главное - он только что получил пятилетний срок. В тюрьме Зейн подаёт в суд на родителей. За то, что они дали ему жизнь.-Сэмпл | Кинопоиск-Качество видео: WEB-DLRip-AVC
Формат видео: MKV
Видео: x264 (High@L4.1); 1136x476, Display aspect ratio 2.387:1, 24.000 fps, 2094 Kbps
Аудио: Русский: AC-3; 16 bits 48 Khz; 5.1ch 384 Kbps; CBR | MVO (iTunes)

MediaInfo

x264 log

avs [info]: 1136x476p 1:1 @ 24/1 fps (cfr)
x264 [info]: using SAR=1/1
x264 [info]: using cpu capabilities: MMX2 SSE2Fast SSSE3 SSE4.2
x264 [info]: profile High, level 4.1
x264 [info]: frame I:1201 Avg QP:16.66 size: 54025
x264 [info]: frame P:47517 Avg QP:19.19 size: 21064
x264 [info]: frame B:132553 Avg QP:21.21 size: 6874
x264 [info]: consecutive B-frames: 2.8% 5.2% 10.1% 51.7% 9.6% 16.2% 1.2% 2.3% 0.5% 0.1% 0.2%
x264 [info]: mb I I16..4: 4.7% 82.8% 12.5%
x264 [info]: mb P I16..4: 1.1% 11.8% 1.4% P16..4: 45.1% 23.6% 13.2% 0.3% 0.1% skip: 3.3%
x264 [info]: mb B I16..4: 0.1% 0.7% 0.1% B16..8: 41.2% 11.9% 2.8% direct: 6.3% skip:36.9% L0:40.7% L1:45.2% BI:14.2%
x264 [info]: 8x8 transform intra:81.7% inter:65.6%
x264 [info]: direct mvs spatial:99.2% temporal:0.8%
x264 [info]: coded y,uvDC,uvAC intra: 88.5% 76.6% 39.8% inter: 28.5% 15.8% 4.4%
x264 [info]: i16 v,h,dc,p: 9% 27% 3% 61%
x264 [info]: i8 v,h,dc,ddl,ddr,vr,hd,vl,hu: 14% 9% 4% 8% 13% 15% 13% 13% 12%
x264 [info]: i4 v,h,dc,ddl,ddr,vr,hd,vl,hu: 14% 8% 2% 8% 15% 17% 14% 11% 11%
x264 [info]: i8c dc,h,v,p: 36% 25% 22% 17%
x264 [info]: Weighted P-Frames: Y:2.1% UV:0.7%
x264 [info]: ref P L0: 51.8% 12.5% 15.9% 4.8% 4.2% 2.6% 2.5% 1.3% 1.3% 1.0% 1.1% 0.9% 0.1% 0.0%
x264 [info]: ref B L0: 80.8% 9.1% 3.7% 1.9% 1.3% 1.0% 0.8% 0.5% 0.4% 0.3% 0.2%
x264 [info]: ref B L1: 96.8% 3.2%
x264 [info]: kb/s:2094.01
-General
Unique ID : 205113470834035763918564653029668510643 (0x9A4F6AE4670F478C89DA481D71355BB3)
Complete name : Капернаум.2018.mkv
Format : Matroska
Format version : Version 2
File size : 2.18 GiB
Duration : 2 h 5 min
Overall bit rate : 2 480 kb/s
Encoded date : UTC 2019-03-21 18:23:13
Writing application : mkvmerge v7.8.0 ('River Man') 32bit built on Mar 27 2015 16:18:02
Writing library : libebml v1.3.1 + libmatroska v1.4.2
Video
ID : 1
Format : AVC
Format/Info : Advanced Video Codec
Format profile : High@L4.1
Format settings : CABAC / 12 Ref Frames
Format settings, CABAC : Yes
Format settings, ReFrames : 12 frames
Codec ID : V_MPEG4/ISO/AVC
Duration : 2 h 5 min
Bit rate : 2 095 kb/s
Width : 1 136 pixels
Height : 476 pixels
Display aspect ratio : 2.40:1
Frame rate mode : Constant
Frame rate : 24.000 FPS
Color space : YUV
Chroma subsampling : 4:2:0
Bit depth : 8 bits
Scan type : Progressive
Bits/(Pixel*Frame) : 0.161
Stream size : 1.80 GiB (83%)
Title : Капернаум / Capharnaüm.2018
Writing library : x264 core 152 r2851kMod ba24899
Encoding settings : cabac=1 / ref=12 / deblock=1:-2:-2 / analyse=0x3:0x133 / me=umh / subme=10 / psy=1 / fade_compensate=0.00 / psy_rd=1.05:0.00 / mixed_ref=1 / me_range=32 / chroma_me=1 / trellis=2 / 8x8dct=1 / cqm=0 / deadzone=21,11 / fast_pskip=0 / chroma_qp_offset=-2 / threads=12 / lookahead_threads=3 / sliced_threads=0 / nr=0 / decimate=0 / interlaced=0 / bluray_compat=0 / constrained_intra=0 / bframes=10 / b_pyramid=2 / b_adapt=2 / b_bias=0 / direct=3 / weightb=1 / open_gop=0 / weightp=2 / keyint=240 / keyint_min=24 / scenecut=40 / intra_refresh=0 / rc_lookahead=80 / rc=2pass / mbtree=0 / bitrate=2095 / ratetol=1.0 / qcomp=0.65 / qpmin=0 / qpmax=69 / qpstep=4 / cplxblur=20.0 / qblur=0.5 / vbv_maxrate=62500 / vbv_bufsize=78125 / nal_hrd=none / filler=0 / ip_ratio=1.32 / pb_ratio=1.30 / aq=1:0.65
Language : Arabic
Default : Yes
Forced : No
Color range : Limited
Color primaries : BT.709
Transfer characteristics : BT.709
Matrix coefficients : BT.709
Audio
ID : 2
Format : AC-3
Format/Info : Audio Coding 3
Codec ID : A_AC3
Duration : 2 h 5 min
Bit rate mode : Constant
Bit rate : 384 kb/s
Channel(s) : 6 channels
Channel positions : Front: L C R, Side: L R, LFE
Sampling rate : 48.0 kHz
Frame rate : 31.250 FPS (1536 SPF)
Bit depth : 16 bits
Compression mode : Lossy
Stream size : 346 MiB (15%)
Title : AC-3; 16 bits 48 Khz; 5.1ch 384 Kbps; CBR | MVO (iTunes)
Language : Russian
Service kind : Complete Main
Default : Yes
Forced : No

Скриншоты

[cybertorrent.ru].t1341.torrent 
Торрент: Зарегистрирован [ 2019-03-22 16:11 ] · 18A8A9850A05747C9734915B3F15E9D11A45E5E7

Скачать .torrent

Скачать

11 KB

Статус: проверено
Скачан: 0 раз
Размер: 2,18 GB
terms.php
Профиль ЛС
Показать сообщения:    

Текущее время: 19-Окт 05:07

Часовой пояс: UTC ± 0



Вы не можете начинать темы
Вы не можете отвечать на сообщения
Вы не можете редактировать свои сообщения
Вы не можете удалять свои сообщения
Вы не можете голосовать в опросах
Вы не можете прикреплять файлы к сообщениям
Вы можете скачивать файлы