Статистика раздачи
Размер:  15,14 GB   |    Зарегистрирован:  7 месяцев 5 дней   |    Скачан:  0 раз

Полного источника не было: Никогда

 
   
 
 

krek ®

Пол:
Не указан
Стаж:
7 месяцев 6 дней
Сообщений:
104

- Год выпуска: 2010-2014
Страна: Япония
Жанр: меха, фантастика, военная драма
Продолжительность: OVA, 7 эп. по 58 мин.
Выпуск: c 20.02.2010 по 17.05.2014-Перевод:

  • русские субтитры от Aglenn & Reaper [1-3]
  • русские субтитры от Nolf [4-7]
  • английские субтитры оф. R1-Озвучка:
  • одноголосая (муж.) от NIKITOS (SHIZA) [1-3]
  • многоголосая (муж., жен.) от Анимедиа & Sem&Ko [1]-Режиссер: Фурухаси Кадзухиро
    Студия: -Описание:
    На дворе 96 год Вселенского Века. Прошло всего 3 года после событий "Контратаки Чара", но человечеству уже угрожает новый конфликт – на этот раз между Земной Федерацией и террористической группировкой из Нового Зиона, прозванной "Рукавами". В сражениях за таинственный “Ящик Лапласа”, способный, по слухам, изменить ход истории человечества, вновь взрываются мобильные доспехи, рушатся космические колонии и погибают люди.-Информационные ссылки: AniDB || MAL || WA || Официальный сайт
    Информация по франчайзу: Гандам Вики-Качество: BDRip
    Энкод: THORAnime
    Тип видео: без хардсаба, без линковки
    Формат: mkv
    Видео: x264 (Hi10p), 1280x720, ~3400 kbps, 23.976 fps
    Аудио JAP: DTS, 48000Hz, ~1500 kbps, 6ch
    Аудио RUS 1: AAC, 48000Hz, 192 kbps, 2ch (внешними файлами)
    Аудио RUS 2: DTS, 48000Hz, 1510 kbps, 6ch (внешними файлами)-

    Список эпизодов

    1. Day of the Unicorn
    2. The Second Coming of Char
    3. Specter of Laplace
    4. At the Bottom of the Gravity Well
    5. The Black Unicorn
    6. Two Worlds, Two Tomorrows
    7. Over the Rainbow

    Скриншоты

    Подробные тех. данные

    Общее
    Уникальный идентификатор : 254325632438943946811374663584645101112 (0xBF5555CA06EDD1D980060A488517B638)
    Полное имя : Z:\Anime\720p\MS Gundam Unicorn [BD][720p]\Mobile_Suit_Gundam_Unicorn_Ep1_[720p,BluRay,x264,DTS]_-_THORA.mkv
    Формат : Matroska
    Версия формата : Version 2
    Размер файла : 1,99 Гбайт
    Продолжительность : 57 м.
    Общий поток : 4915 Кбит/сек
    Название фильма : Gundam Unicorn Ep1
    Дата кодирования : UTC 2014-06-22 13:22:04
    Программа кодирования : mkvmerge v2.9.8 ('C'est le bon') built on Aug 13 2009 12:49:06
    Библиотека кодирования : libebml v0.7.7 + libmatroska v0.8.1
    Attachment : Yes / Yes / Yes / Yes
    Видео
    Идентификатор : 1
    Формат : AVC
    Формат/Информация : Advanced Video Codec
    Профиль формата : High 10@L4.1
    Параметр CABAC формата : Да
    Параметр ReFrames формата : 6 кадров
    Идентификатор кодека : V_MPEG4/ISO/AVC
    Продолжительность : 57 м.
    Битрейт : 3308 Кбит/сек
    Ширина : 1280 пикселей
    Высота : 720 пикселей
    Соотношение сторон : 16:9
    Режим частоты кадров : Постоянный
    Частота кадров : 23,976 кадра/сек
    Цветовое пространство : YUV
    Субдискретизация насыщенности : 4:2:0
    Битовая глубина : 10 бит
    Тип развёртки : Прогрессивная
    Бит/(Пиксели*Кадры) : 0.150
    Размер потока : 1,34 Гбайт (67%)
    Библиотека кодирования : x264 core
    Язык : Japanese
    Default : Нет
    Forced : Нет
    Аудио
    Идентификатор : 2
    Формат : DTS
    Формат/Информация : Digital Theater Systems
    Режим : 16
    Параметр Endianness формата : Big
    Идентификатор кодека : A_DTS
    Продолжительность : 57 м.
    Вид битрейта : Постоянный
    Битрейт : 1510 Кбит/сек
    Каналы : 6 каналов
    Расположение каналов : Front: L C R, Side: L R, LFE
    Частота : 48,0 КГц
    Битовая глубина : 24 бит
    Метод сжатия : С потерями
    Задержка видео : 11 мс.
    Размер потока : 626 Мбайт (31%)
    Язык : Japanese
    Default : Нет
    Forced : Нет
    Текст
    Идентификатор : 3
    Формат : ASS
    Идентификатор кодека : S_TEXT/ASS
    Идентификатор кодека/Информация : Advanced Sub Station Alpha
    Метод сжатия : Без потерь
    Язык : English
    Default : Нет
    Forced : Нет
    -

    Информация о релизе

  • Выбор видео, перевода, озвучки, а также типа сборки материала осуществляется релизером и не подлежит обсуждению. Если вы считаете, что раздаваемый материал противоречит правилам раздела "Аниме" rutracker.org, сообщите об этом одному из модераторов раздела.
  • В случае появления нового материала или же лучшего по качеству материала релизер оставляет за собой право обновить раздачу. В этом случае вам необходимо ознакомиться с изменениями (добавлениями) и перекачать торрент.
  • Данный релиз предназначен для просмотра на ПК. Воспроизведение на иных проигрывателях не гарантируется. Для просмотра рекомендуется Media Player Classic с установленным пакетом кодеков K-Lite.
  • Данный релиз содержит 10-битное видео (Hi10p). Для корректного воспроизведения обязательно используйте кодеки, поддерживающие 10-битное видео.
    Обсудить частные случаи проблем с воспроизведением и получить дополнительную информацию можно здесь.

  • Данный релиз предназначен для просмотра с внешними субтитрами и внешними звуковыми дорожками.
  • Для просмотра с внешней звуковой дорожкой нужно:
    перекинуть файлы .mka из папки "RUS Sound [<автор(ы) озвучки>]" в одну папку с видео и переключить звуковую дорожку в плеере при просмотре. Как это сделать в разных плеерах подробно описано здесь.

  • Для просмотра с субтитрами нужно:
    перекинуть файлы .ass из папки "RUS Subtitles [<автор(ы) перевода>]" в одну папку с видео - плеер подгрузит их автоматически при открытии видео.

  • Если у вас возникли проблемы с просмотром, не связанные с описанным выше, сообщите о них автору раздачи посредством сообщения в теме или ЛС Aglenn.
  • [cybertorrent.ru].t1344.torrent 
    Торрент: Зарегистрирован [ 2018-02-16 03:41 ] · DEBF172C08EB5C406D25B070A221FAEA4D2EE28F

    Скачать .torrent

    Скачать

    78 KB

    Статус: проверено
    Скачан: 0 раз
    Размер: 15,14 GB
    Профиль [ЛС]
    Показать сообщения:    

    Текущее время: 21-Сен 17:35

    Часовой пояс: UTC ± 0



    Вы не можете начинать темы
    Вы не можете отвечать на сообщения
    Вы не можете редактировать свои сообщения
    Вы не можете удалять свои сообщения
    Вы не можете голосовать в опросах
    Вы не можете прикреплять файлы к сообщениям
    Вы можете скачивать файлы
    Torrents24.ru открытый BitTorrent Torrents24.pl открытый BitTorrent CyberTorrent.ru открытый BitTorrent BtList.ru рейтинг BitTorrent трекеров Яндекс.Метрика