Статистика раздачи
Размер:  1,08 GB   |    Зарегистрирован:  6 месяцев 25 дней   |    Скачан:  0 раз

Полного источника не было: Никогда

   
 

serzh ®

Пол:
Не указан
Стаж:
7 месяцев 4 дня
Сообщений:
384

Позор / Shame
Страна: Австралия
Жанр: драма
Год выпуска: 1988
Продолжительность: 01:30:10
Перевод: Авторский (одноголосый закадровый) Андрей Гаврилов
Субтитры: нет
Оригинальная аудиодорожка: английский
Режиссер: Стив Джодрелл / Steve Jodrell
В ролях: Деборра-Ли Фёрнесс, Тони Бэрри, Симона Бьюкэнэн, Джиллиан Джонс, Peter Aanensen, Маргарет Форд, Дэвид Франклин, Билл МакКласки, Эллисон Тейлор, Филлип Дин...
Описание: Аста Кэдэлл — женщина-адвокат, путешествующая на мотоцикле по австралийской глубинке. Она останавливается в маленьком городке, который находится в Западной Австралии. Мотоцикл Асты ломается и она идёт просить помощи в первый попавшийся дом. Дочь хозяина этого дома недавно была изнасилована сыном очень влиятельных, по меркам этого городка людей. Аста пытается убедить её выдвинуть обвинения против насильника, но консервативное местное население сделает всё, чтобы сохранить преступление в тайне…
Доп. информация: Перевод Гаврилова с VHSRio от alenavova. Синхронизация звука - Dreven.
Сэмпл: http://sendfile.su/1483752
Качество видео: DVDRip-AVC
Формат видео: MKV
Видео: 720x576 (16:9) @ 1024x576, 25.000 fps, AVC, ~1368 Kbps, 0.132 bits/pixel
Аудио 1: Russian, 48.0 KHz, AC3, 2 ch, 192 Kbps - Андрей Гаврилов
Аудио 2: English, 48.0 KHz, AAC LC, 2 ch, 160 Kbps

MediaInfo

General
Unique ID : 44892266733836444034293632458587180469 (0x21C5EFA2C4ECBC9D5541019939650DB5)
Complete name : C:\Shame.mkv
Format : Matroska
Format version : Version 4 / Version 2
File size : 1.08 GiB
Duration : 1 h 30 min
Overall bit rate : 1 722 kb/s
Encoded date : UTC 2019-03-22 11:39:17
Writing application : mkvmerge v32.0.0 ('Astral Progressions') 64-bit
Writing library : libebml v1.3.7 + libmatroska v1.5.0
Video
ID : 1
Format : AVC
Format/Info : Advanced Video Codec
Format profile : Main@L3
Format settings : CABAC / 4 Ref Frames
Format settings, CABAC : Yes
Format settings, ReFrames : 4 frames
Codec ID : V_MPEG4/ISO/AVC
Duration : 1 h 30 min
Bit rate : 1 368 kb/s
Width : 720 pixels
Height : 576 pixels
Display aspect ratio : 16:9
Frame rate mode : Constant
Frame rate : 25.000 FPS
Standard : PAL
Color space : YUV
Chroma subsampling : 4:2:0
Bit depth : 8 bits
Scan type : Progressive
Bits/(Pixel*Frame) : 0.132
Stream size : 882 MiB (79%)
Writing library : x264 core 112
Encoding settings : cabac=1 / ref=2 / deblock=1:0:0 / analyse=0x1:0x111 / me=hex / subme=6 / psy=1 / psy_rd=1.00:0.00 / mixed_ref=0 / me_range=16 / chroma_me=1 / trellis=0 / 8x8dct=0 / cqm=0 / deadzone=21,11 / fast_pskip=1 / chroma_qp_offset=-2 / threads=3 / sliced_threads=0 / nr=0 / decimate=1 / interlaced=0 / constrained_intra=0 / bframes=2 / b_pyramid=2 / b_adapt=1 / b_bias=0 / direct=1 / weightb=0 / open_gop=0 / weightp=2 / keyint=250 / keyint_min=24 / scenecut=40 / intra_refresh=0 / rc_lookahead=40 / rc=2pass / mbtree=1 / bitrate=1368 / ratetol=1.0 / qcomp=0.60 / qpmin=3 / qpmax=51 / qpstep=4 / cplxblur=20.0 / qblur=0.5 / ip_ratio=1.40 / aq=1:1.00
Language : English
Default : Yes
Forced : No
Color range : Limited
Color primaries : BT.601 NTSC
Transfer characteristics : BT.709
Matrix coefficients : BT.601
Audio #1
ID : 2
Format : AC-3
Format/Info : Audio Coding 3
Commercial name : Dolby Digital
Codec ID : A_AC3
Duration : 1 h 30 min
Bit rate mode : Constant
Bit rate : 192 kb/s
Channel(s) : 2 channels
Channel layout : L R
Sampling rate : 48.0 kHz
Frame rate : 31.250 FPS (1536 SPF)
Bit depth : 16 bits
Compression mode : Lossy
Stream size : 124 MiB (11%)
Title : Андрей Гаврилов
Language : Russian
Service kind : Complete Main
Default : Yes
Forced : No
Audio #2
ID : 3
Format : AAC LC
Format/Info : Advanced Audio Codec Low Complexity
Codec ID : A_AAC-2
Duration : 1 h 30 min
Bit rate : 160 kb/s
Channel(s) : 2 channels
Channel layout : L R
Sampling rate : 48.0 kHz
Frame rate : 46.875 FPS (1024 SPF)
Compression mode : Lossy
Stream size : 103 MiB (9%)
Language : English
Default : No
Forced : No

Скриншоты

[cybertorrent.ru].t1346.torrent 
Торрент: Зарегистрирован [ 2019-03-22 16:11 ] · 8C5657C458DA3101502325E6BC8AAD6D100285B1

Скачать .torrent

Скачать

11 KB

Статус: проверено
Скачан: 0 раз
Размер: 1,08 GB
terms.php
Профиль ЛС
Показать сообщения:    

Текущее время: 17-Окт 00:05

Часовой пояс: UTC ± 0



Вы не можете начинать темы
Вы не можете отвечать на сообщения
Вы не можете редактировать свои сообщения
Вы не можете удалять свои сообщения
Вы не можете голосовать в опросах
Вы не можете прикреплять файлы к сообщениям
Вы можете скачивать файлы