Статистика раздачи
Размер:  18,02 GB   |    Зарегистрирован:  7 месяцев 5 дней   |    Скачан:  0 раз

Полного источника не было: Никогда

 
   
 
 

karapuz ®

Пол:
Не указан
Стаж:
7 месяцев 6 дней
Сообщений:
128

Скуби-Ду! Корпорация "Тайна" / Scooby-Doo! Mystery Incorporated
Страна: США
Жанр: Мультипликация
Серии (количество): 26 из 26
Продолжительность: ~22 мин
Год выпуска: 2010-11
Перевод 1: Профессиональный (Дублированный) "Пифагор" по заказу WB 1-26 серия
Перевод 2: Профессиональный (Дублированный) "Объединение Русский Дубляж" по заказу СТС 1-15 серия
Перевод 3: Любительский (многоголосый закадровый)
Оригинальная аудиодорожка: Английская
Русские субтитры: нет
Релиз от -
Закадровая озвучка: Студия "Jetvis" (Jet, Vis, smartt, NikelOK)
Режиссёр: Курт Геда / Curt Geda
Роли озвучивали: Мэттью Лиллард, Фрэнк Уэлкер, Кейси Касем, Грей Делайл, Минди Кон, Патрик Уорбертон
Описание: В этом новом мультипликационном сериале Скуби-Ду и его команда - Шегги, Фред, Дафна и Велма пытаются рагадать тайны города Кристальная Бухта, города со свой историей, полной жутких сверхъестественных событий.
Доп. информация: Полные версии мультфильма, с финальными титрами, без ТВ вставок и рекламы!!!!
Дубляж "Пифагор" предоставлен Колей Чешским, дубляж "Объединение Русский Дубляж" предоставлен Lexa1988-L1, . Огромное им СПАСИБО!!!!
Качество: HDRip
Формат: MKV
Видео: H264 / 3179 kbps / 1280x720 / 24 fps / 16:9 / L 3.1
Аудио 1: Russian / 2.0 / 192 Кбит/сек / 48 kHz (Дубляж "Пифагор")
Аудио 2: Russian / 2.0 / 192 Кбит/сек / 48 kHz (Дубляж "Объединение Русский Дубляж")
Аудио 3: Russian / 2.0 / 192 Кбит/сек / 48 kHz (Закадровый)
Аудио 4: English / 2.0 / 192 Кбит/сек / 48 kHz (Оригинал)
Субтитры: нет
Семпл: Забираем здесь

Список серий:

01 - Бойтесь чудовища из подземелья / (Beware the Beast from Below) (Дубляж / Закадровый)
02 - Ужасные чудовища / (The Creeping Creatures) (Дубляж / Закадровый)
03 - Секрет грузовика-призрака / (The Secret of the Ghost Rig) (Дубляж / Закадровый)
04 - Месть Человека-Краба / (Revenge of The Man Crab) (Дубляж / Закадровый)
05 - Мистическая мелодия / (The Song of Mystery) (Дубляж / Закадровый)
06 - Легенда об Элис Мей / (The Legend of Alice May) (Дубляж / Закадровый)
07 - В страхе от фантома / (In Fear of The Phantom) (Дубляж / Закадровый)
08 - Во власти гнома / (The Grasp Of the Gnome) (Дубляж / Закадровый)
09 - Битва Человеконавтов / (Battle Of The Humangonauts) (Дубляж / Закадровый)
10 - Вой страшного пса / (Howl of The Fright Hound) (Дубляж / Закадровый)
11 - Секретная сыворотка / (The Secret Serum) (Дубляж / Закадровый)
12 - Пронзительное сумасшествие / (Shrieking Madness) (Дубляж / Закадровый)
13 - Когда Цикады зовут / (When The Cicada Calls) (Дубляж / Закадровый)
14 - Финал конкурса детективов / (Mystery Solvers Club State Finals) (Дубляж / Закадровый)
15 - Дикая Стая / (Wild Brood) (Дубляж / Закадровый)
16 - Где гуляет Афродита / (Where Walks Aphrodite) (Дубляж / Закадровый)
17 - Исчезновение таинственного особняка / (Escape From Mystery Manor) (Дубляж / Закадровый)
18 - Секрет Дракона / (The Dragon's Secret) (Дубляж / Оригинал)
19 - Ночной кошмар / (Nightfright) (Дубляж / Оригинал)
20 - Песня сирены / (The Siren's Song) (Дубляж / Оригинал)
21 - Опасная Мантикора / (Menace of the Manticore) (Дубляж / Оригинал)
22 - Нападение безголового монстра / (Attack of the Headless Horror) (Дубляж / Оригинал)
23 - Охота на призраков в Кристальной пещере / (A Haunting in Crystal Cove) (Дубляж / Оригинал)
24 - Cудья с того света / (Dead Justice) (Дубляж / Оригинал)
25 - Заложник теней / (Pawn of Shadows) (Дубляж / Оригинал)
26 - Все боятся Фрика / ( All Fear The Freak) (Дубляж / Оригинал)

Подробные технические данные

Общее
Уникальный идентификатор : 254748146184253106095857994148011121469 (0xBFA6B5533C8EB959B9B82B0A64ED1B3D)
Полное имя : H:\video\Scooby-Doo! Mystery Incorporated\S01E01 Beware The Beast From Below 720p.mkv
Формат : Matroska
Версия формата : Version 2
Размер файла : 655 Мбайт
Продолжительность : 23 м.
Общий поток : 3951 Кбит/сек
Дата кодирования : UTC 2013-02-08 10:41:28
Программа кодирования : mkvmerge v5.8.0 ('No Sleep / Pillow') built on Sep 2 2012 15:37:04
Библиотека кодирования : libebml v1.2.3 + libmatroska v1.3.0
Видео
Идентификатор : 1
Формат : AVC
Формат/Информация : Advanced Video Codec
Профиль формата : High@L3.1
Параметр CABAC формата : Да
Параметр ReFrames формата : 4 кадра
Идентификатор кодека : V_MPEG4/ISO/AVC
Продолжительность : 23 м.
Битрейт : 3179 Кбит/сек
Ширина : 1280 пикселей
Высота : 720 пикселей
Соотношение сторон : 16:9
Режим частоты кадров : Постоянный
Частота кадров : 24,000 кадра/сек
Цветовое пространство : YUV
Субдискретизация насыщенности : 4:2:0
Битовая глубина : 8 бит
Тип развёртки : Прогрессивная
Бит/(Пиксели*Кадры) : 0.144
Размер потока : 515 Мбайт (79%)
Библиотека кодирования : x264 core 80 r1373M 4322f63
Настройки программы : cabac=1 / ref=3 / deblock=1:0:0 / analyse=0x3:0x133 / me=hex / subme=7 / psy=1 / psy_rd=1.0:0.0 / mixed_ref=1 / me_range=16 / chroma_me=1 / trellis=1 / 8x8dct=1 / cqm=0 / deadzone=21,11 / fast_pskip=0 / chroma_qp_offset=-2 / threads=1 / sliced_threads=0 / nr=0 / decimate=1 / mbaff=0 / constrained_intra=0 / bframes=3 / b_pyramid=2 / b_adapt=1 / b_bias=0 / direct=1 / wpredb=1 / wpredp=2 / keyint=250 / keyint_min=25 / scenecut=40 / rc_lookahead=40 / rc=2pass / mbtree=1 / bitrate=3179 / ratetol=1.0 / qcomp=0.60 / qpmin=1 / qpmax=51 / qpstep=4 / cplxblur=20.0 / qblur=0.5 / ip_ratio=1.40 / aq=1:1.00
Язык : English
Default : Да
Forced : Нет
Аудио #1
Идентификатор : 2
Формат : AC-3
Формат/Информация : Audio Coding 3
Расширение режима : CM (complete main)
Параметр Endianness формата : Big
Идентификатор кодека : A_AC3
Продолжительность : 23 м.
Вид битрейта : Постоянный
Битрейт : 192 Кбит/сек
Каналы : 2 канала
Расположение каналов : Front: L R
Частота : 48,0 КГц
Битовая глубина : 16 бит
Метод сжатия : С потерями
Размер потока : 31,8 Мбайт (5%)
Заголовок : Дубляж "Пифагор"
Язык : Russian
Default : Да
Forced : Нет
Аудио #2
Идентификатор : 3
Формат : AC-3
Формат/Информация : Audio Coding 3
Расширение режима : CM (complete main)
Параметр Endianness формата : Big
Идентификатор кодека : A_AC3
Продолжительность : 23 м.
Вид битрейта : Постоянный
Битрейт : 192 Кбит/сек
Каналы : 2 канала
Расположение каналов : Front: L R
Частота : 48,0 КГц
Битовая глубина : 16 бит
Метод сжатия : С потерями
Размер потока : 31,8 Мбайт (5%)
Заголовок : Дубляж "Объединение Русский Дубляж"
Язык : Russian
Default : Нет
Forced : Нет
Аудио #3
Идентификатор : 4
Формат : AC-3
Формат/Информация : Audio Coding 3
Расширение режима : CM (complete main)
Параметр Endianness формата : Big
Идентификатор кодека : A_AC3
Продолжительность : 23 м.
Вид битрейта : Постоянный
Битрейт : 192 Кбит/сек
Каналы : 2 канала
Расположение каналов : Front: L R
Частота : 48,0 КГц
Битовая глубина : 16 бит
Метод сжатия : С потерями
Размер потока : 31,8 Мбайт (5%)
Заголовок : Закадровый
Язык : Russian
Default : Нет
Forced : Нет
Аудио #4
Идентификатор : 5
Формат : AC-3
Формат/Информация : Audio Coding 3
Расширение режима : CM (complete main)
Параметр Endianness формата : Big
Идентификатор кодека : A_AC3
Продолжительность : 23 м.
Вид битрейта : Постоянный
Битрейт : 192 Кбит/сек
Каналы : 2 канала
Расположение каналов : Front: L R
Частота : 48,0 КГц
Битовая глубина : 16 бит
Метод сжатия : С потерями
Размер потока : 31,8 Мбайт (5%)
Заголовок : Оригинал
Язык : English
Default : Нет
Forced : Нет

Скриншоты


Внимание! Раздача ведется путем добавления новых серий

Внимание! Раздача ведётся путём добавления новых серий; при каждом добавлении создётся новый торрент. Чтобы начать докачку новой серии, пользователям необходимо сделать следующее:
(1) остановить скачивание,
(2) удалить старый торрент у себя из клиента (старые серии удалять не надо),
(3) скачать новый торрент и запустить его у себя в клиенте вместо старого, при этом указать клиенту путь в старую папку куда и должно происходить скачивание новых серий.
Ваш клиент при этом должен произвести хеширование (проверку) старой папки (если не производит сам - помогите ему сделать это), и будет докачивать только те серии которых у вас ещё нет. Старые серии при этом не удаляются, а продолжают раздаваться!
Eсли вы уже удалили старые серии, то предотвратить повторную закачку старых серий можно, отжав галочку в соответсвующих местах при запуске нового торрента. По возможности, желательно не удалять старые серии как можно дольше чтобы релизёр не столько продолжал раздавать старые серии, а смог сконцентрироваться на новых.

Ссылка на предыдущие и альтернативные раздачи

[HDTVRip] Версия - Скуби-Ду! Корпорация "Тайна" 1-13 [Jetvis Studio]
[HDTVRip] Версия - Скуби-Ду! Корпорация "Тайна" 14-17[Jetvis Studio]
Ссылка на предыдущие и альтернативные раздачи: Тут
09.02.13Добавлен ДУБЛЯЖ "Объединение Русский Дубляж" 15 серий. Просьба перекачать торрент файл.
[cybertorrent.ru].t1347.torrent 
Торрент: Зарегистрирован [ 2018-02-16 03:41 ] · 4808B587AD9B7D4B8BA7C8D9BC3C49DD0EF01345

Скачать .torrent

Скачать

92 KB

Статус: проверено
Скачан: 0 раз
Размер: 18,02 GB
Профиль [ЛС]
Показать сообщения:    

Текущее время: 21-Сен 11:27

Часовой пояс: UTC ± 0



Вы не можете начинать темы
Вы не можете отвечать на сообщения
Вы не можете редактировать свои сообщения
Вы не можете удалять свои сообщения
Вы не можете голосовать в опросах
Вы не можете прикреплять файлы к сообщениям
Вы можете скачивать файлы
Torrents24.ru открытый BitTorrent Torrents24.pl открытый BitTorrent CyberTorrent.ru открытый BitTorrent BtList.ru рейтинг BitTorrent трекеров Яндекс.Метрика