Статистика раздачи
Размер:  182 MB   |    Зарегистрирован:  9 месяцев 2 дня   |    Скачан:  0 раз

Полного источника не было: Никогда

 
   
 
 

Red ®

Пол:
Не указан
Стаж:
9 месяцев 3 дня
Сообщений:
87

Губка Боб Квадратные Штаны / SpongeBob SquarePants
Страна: США
Жанр: комедия, семейный, мультсериал
Продолжительность: ~00:10:00
Год выпуска: 2009
Перевод: Профессиональный (дублированный) [Арт-дубляж]
Русские субтитры: нет
Режиссёр: Стивен Хилленбург / Stephen Hillenburg
Описание: «Губка Боб Квадратные Штаны» (англ. «SpongeBob SquarePants») — американский мультсериал производства телеканала «Nickelodeon», выпущенный в эфир летом 1999 года и ставший одной из самых популярных анимационных программ телевидения, а также фактическим «лицом» канала «Nickelodeon». За время существования Губка Боб приобрел репутацию сериала с добрым, но подчас глупым юмором, неожиданным сюжетом и оригинальными сценами. Это второй по продолжительности показа мультипликационный сериал телеканала Nickelodeon после «Ох уж эти детки» (англ. «Rugrats»)
Действия мультфильма разворачиваются на дне Тихого океана в небольшом вымышленном городке под названием Бикини-Боттом, главными действующими лицами являются антропоморфные представители морской фауны: губка, морская звезда, кальмар, краб, планктон и, как бы странно это не звучало, белка. Подводная тематика была продиктована создателем сериала, Стивеном Хилленбургом, который, прежде чем стать мультипликатором, долгое время проработал в профессии морского биолога.
Доп. информация: Появление этой раздачи стало следствием не возможности размещения серий разного качества в одной раздаче! Больше серий вы найдёте Здесь
Качество: DVDRip
Формат: AVI
Видео: XVID, 608x432, 23.976 fps, 973 kbps.
Аудио 1: [Rus] MP3, 22.05 KHz, 2 ch, 64.0 Kbps
Аудио 2: [Eng] MP3, 48.0 KHz, 2 ch, 128 Kbps
Субтитры: отсутствуют

Список серий

s6e25a - Pineapple Fever (Ананасная лихорадка) [DVDRip] [rus_eng]
s6e25b - Chum Caverns (Пищеры Чам) [DVDRip] [rus_eng]

Подробные технические данные

General
Complete name : s6e25a - Pineapple Fever [DVDRip] [rus_eng].avi
Format : AVI
Format/Info : Audio Video Interleave
File size : 90.5 MiB
Duration : 10mn 43s
Overall bit rate : 1 180 Kbps
Writing application : VirtualDubModRus 1.5.10.2 (build 2542/release)
Writing library : VirtualDubMod build 2542/release
Video
ID : 0
Format : MPEG-4 Visual
Format profile : Advanced Simple@L5
Format settings, BVOP : Yes
Format settings, QPel : No
Format settings, GMC : No warppoints
Format settings, Matrix : Default (H.263)
Muxing mode : Packed bitstream
Codec ID : XVID
Codec ID/Hint : XviD
Duration : 10mn 43s
Bit rate : 973 Kbps
Width : 608 pixels
Height : 432 pixels
Display aspect ratio : 1.407
Frame rate : 23.976 fps
Color space : YUV
Chroma subsampling : 4:2:0
Bit depth : 8 bits
Scan type : Progressive
Compression mode : Lossy
Bits/(Pixel*Frame) : 0.155
Stream size : 74.6 MiB (83%)
Writing library : XviD 1.2.0.dev47 (UTC 2006-11-01)
Audio #1
ID : 1
Format : MPEG Audio
Format version : Version 2
Format profile : Layer 3
Mode : Joint stereo
Mode extension : Intensity Stereo + MS Stereo
Codec ID : 55
Codec ID/Hint : MP3
Duration : 10mn 43s
Bit rate mode : Constant
Bit rate : 64.0 Kbps
Channel(s) : 2 channels
Sampling rate : 22.05 KHz
Compression mode : Lossy
Stream size : 4.91 MiB (5%)
Alignment : Split accross interleaves
Interleave, duration : 42 ms (1.00 video frame)
Interleave, preload duration : 500 ms
Audio #2
ID : 2
Format : MPEG Audio
Format version : Version 1
Format profile : Layer 3
Mode : Joint stereo
Mode extension : MS Stereo
Codec ID : 55
Codec ID/Hint : MP3
Duration : 10mn 43s
Bit rate mode : Constant
Bit rate : 128 Kbps
Channel(s) : 2 channels
Sampling rate : 48.0 KHz
Compression mode : Lossy
Stream size : 9.82 MiB (11%)
Alignment : Aligned on interleaves
Interleave, duration : 42 ms (1.00 video frame)
Interleave, preload duration : 504 ms
Writing library : LAME3.97
Сэмпл
Все раздачи мультсериала

Скриншоты

[cybertorrent.ru].t1351.torrent 
Торрент: Зарегистрирован [ 2018-02-16 03:41 ] · 519D217EF377E137294B1ECCEC6123911EAF68B9

Скачать .torrent

Скачать

15 KB

Статус: проверено
Скачан: 0 раз
Размер: 182 MB
Профиль [ЛС]
Показать сообщения:    

Текущее время: 18-Ноя 23:15

Часовой пояс: UTC ± 0



Вы не можете начинать темы
Вы не можете отвечать на сообщения
Вы не можете редактировать свои сообщения
Вы не можете удалять свои сообщения
Вы не можете голосовать в опросах
Вы не можете прикреплять файлы к сообщениям
Вы можете скачивать файлы
Torrents24.ru открытый BitTorrent Torrents24.pl открытый BitTorrent CyberTorrent.ru открытый BitTorrent BtList.ru рейтинг BitTorrent трекеров Яндекс.Метрика