Статистика раздачи
Размер:  1,46 GB   |    Зарегистрирован:  2 месяца 6 дней   |    Скачан:  0 раз
DL-List: Нет

Полного источника не было: Никогда

 
     
 
 

MAGNAT ®

Пол:
Мужской
Стаж:
1 год 2 месяца
Сообщений:
7949

На кораблях по морю / Down to the Sea in Ships
Страна: США
Студия: 20th Century Fox Film Corporation
Жанр: драма, приключения
Год выпуска: 1949
Продолжительность: 02:00:19
Перевод: Одноголосый закадровый -
Субтитры: русские (перевод - karlivanovich)
Оригинальная аудиодорожка: английский
Режиссер: Генри Хэтэуэй / Henry Hathaway
Композитор: Альфред Ньюман / Alfred Newman
В ролях: Лайонел Бэрримор / Lionel Barrymore ... капитан Беринг Джой
Ричард Уидмарк / Richard Widmark ... первый помощник Дэн Лансфорд
Дин Стокуэлл / Dean Stockwell ... Джед Джой
Сесил Келлауэй / Cecil Kellaway ... “Слякоть“ Таббс
Джин Локхарт / Gene Lockhart ... Эндрю Л. Буш
Берри Крёгер / Berry Kroeger ... Манчестер
Джон МакИнтайр / John McIntire ... Тэтч
Гарри Морган / Harry Morgan ... Бриттон
Гарри Девенпорт / Harry Davenport ... Бенджамин Харрис
Пол Харви / Paul Harvey ... капитан Джон Бриггс
Джей С. Флиппен / Jay C. Flippen ... Люк Сьюэлл

Описание: Капитан китобойного судна Беринг Джой берет своего внука Джеда в китобойную экспедицию. Старый капитан хочет обучить своего избалованного внука реальным жизненным ценностям, таким как честность, смелость, мудрость, справедливость и трудолюбие. В то же время первому помощнику Дэну Лансфорду поручено обучать мальчика его школьным занятиям. Скоро между капитаном Джойем и первым помощником Лансфордом начинается соперничество в стремлении стать образцом для подражания для молодого Джеда.
Формат видео: AVI
Видео: XviD, 640x480 (1.33:1), 23.976 fps, 1341 Kbps
Аудио 1: AC3, 48.0 KHz, 2 ch., 192 Kbps (русский одноголосый закадровый перевод) - Eugene Greene
Аудио 2: AC3, 48.0 KHz, 2 ch., 192 Kbps (оригинальная английская звуковая дорожка)

MediaInfo

Общее
Полное имя : F:\РАЗДАЧИ\Down to the Sea in Ships 1949\Down to the Sea in Ships.avi
Формат : AVI
Формат/Информация : Audio Video Interleave
Размер файла : 1,46 Гбайт
Продолжительность : 2 ч. 0 м.
Общий поток : 1739 Кбит/сек
Программа кодирования : VirtualDubMod 1.5.10.3 | www.virtualdub-fr.org || (build 2550/release)
Библиотека кодирования : VirtualDubMod build 2550/release
Видео
Идентификатор : 0
Формат : MPEG-4 Visual
Профиль формата : Advanced Simple@L5
Параметр BVOP формата : 2
Параметр QPel формата : Нет
Параметр GMC формата : Без точки перехода
Параметр матрицы формата : Default (H.263)
Идентификатор кодека : XVID
Идентификатор кодека/Подсказка : XviD
Продолжительность : 2 ч. 0 м.
Битрейт : 1341 Кбит/сек
Ширина : 640 пикселей
Высота : 480 пикселей
Соотношение сторон : 4:3
Частота кадров : 23,976 (24000/1001) кадра/сек
Цветовое пространство : YUV
Субдискретизация насыщенности : 4:2:0
Битовая глубина : 8 бит
Тип развёртки : Прогрессивная
Метод сжатия : С потерями
Бит/(Пиксели*Кадры) : 0.182
Размер потока : 1,13 Гбайт (77%)
Библиотека кодирования : XviD 73
Аудио #1
Идентификатор : 1
Формат : AC-3
Формат/Информация : Audio Coding 3
Параметр Endianness формата : Big
Идентификатор кодека : 2000
Продолжительность : 2 ч. 0 м.
Вид битрейта : Постоянный
Битрейт : 192 Кбит/сек
Каналы : 2 канала
Расположение каналов : Front: L R
Частота : 48,0 КГц
Частота кадров : 31,250 кадров/сек (1536 spf)
Битовая глубина : 16 бит
Метод сжатия : С потерями
Размер потока : 165 Мбайт (11%)
Выравнивание : Разделение по промежуткам
Продолжительность промежутка : 42 мс. (1,00 видеокадр)
Время предзагрузки промежутка : 500 мс.
ServiceKind/String : Complete Main
Аудио #2
Идентификатор : 2
Формат : AC-3
Формат/Информация : Audio Coding 3
Параметр Endianness формата : Big
Идентификатор кодека : 2000
Продолжительность : 2 ч. 0 м.
Вид битрейта : Постоянный
Битрейт : 192 Кбит/сек
Каналы : 2 канала
Расположение каналов : Front: L R
Частота : 48,0 КГц
Частота кадров : 31,250 кадров/сек (1536 spf)
Битовая глубина : 16 бит
Метод сжатия : С потерями
Размер потока : 165 Мбайт (11%)
Выравнивание : Разделение по промежуткам
Продолжительность промежутка : 42 мс. (1,00 видеокадр)
Время предзагрузки промежутка : 500 мс.
ServiceKind/String : Complete Main
[cybertorrent.ru].t13596.torrent 
Торрент: Зарегистрирован [ 2020-03-29 19:07 ] · 4FE9672A8160C3E69107CD72B000C05423A65F5B

Скачать .torrent

Скачать

15 KB

Статус: проверено
Скачан: 0 раз
Размер: 1,46 GB  ·  Тип торрента
terms.php
Профиль [ЛС]
Показать сообщения:    

Текущее время: 05-Июн 13:27

Часовой пояс: UTC ± 0



Вы не можете начинать темы
Вы не можете отвечать на сообщения
Вы не можете редактировать свои сообщения
Вы не можете удалять свои сообщения
Вы не можете голосовать в опросах
Вы не можете прикреплять файлы к сообщениям
Вы можете скачивать файлы