Статистика раздачи
Размер:  798 MB   |    Зарегистрирован:  3 месяца 12 дней   |    Скачан:  0 раз

Полного источника не было: Никогда

 
   
 
 

lopster ®

Пол:
Не указан
Стаж:
3 месяца 12 дней
Сообщений:
612

Прогулка по Парижу Год выпуска: 2010
Жанр: Мелодрама
Продолжительность: 01:19:54
Режиссер: Дмитрий Томашпольский
В ролях: Эрик Шаэнье, Питер Юдзон, Екатерина Гусева, Алексей Абашкин, Лариса Удовиченко, Игорь Ясулович, Вадим Медведев, Вячеслав Разбегаев
Описание: Молодая женщина летит в Париж, где она встречает мужчину. Первая встреча происходит при странных обстоятельствах. Он ранен, и она оказывает ему помощь, а потом она проводит с ним некоторое время. И возникают чувства…
Доп. информация: Релиз:
СЭМПЛ
Все раздачи фильма: Прогулка по Парижу
Качество: SATRip
Формат: AVI
Видео кодек: XviD
Аудио кодек: MP3
Видео: 720x416 (1.73:1), 25 fps, XviD build 50 ~1198 kbps avg, 0.16 bit/pixel
Аудио: 48 kHz, MPEG Layer 3, 2 ch, ~192.00 kbps avg

MI

Код:Общее
Полное имя : C:\otkat\Видео\Прогулка по Парижу\Progulka.po.Parizhu.2010.XviD.SATRip.avi
Формат : AVI
Формат/Информация : Audio Video Interleave
Размер файла : 798 Мбайт
Продолжительность : 1 ч. 19 м.
Общий поток : 1397 Кбит/сек
Программа кодирования : VirtualDubMod 1.5.4.1 (build 2178/release)
Библиотека кодирования : VirtualDubMod build 2178/release
Видео
Идентификатор : 0
Формат : MPEG-4 Visual
Профиль формата : Advanced Simple@L5
Параметр BVOP формата : 1
Параметр QPel формата : Нет
Параметр GMC формата : Без точки перехода
Параметр матрицы формата : Выборочная
Идентификатор кодека : XVID
Идентификатор кодека/Подсказка : XviD
Продолжительность : 1 ч. 19 м.
Битрейт : 1198 Кбит/сек
Ширина : 720 пикселей
Высота : 416 пикселей
Соотношение сторон : 1,731
Частота кадров : 25,000 кадров/сек
Цветовое пространство : YUV
Субдискретизация насыщенности : 4:2:0
Битовая глубина : 8 бит
Тип развёртки : Прогрессивная
Метод сжатия : С потерями
Бит/(Пиксели*Кадры) : 0.160
Размер потока : 685 Мбайт (86%)
Библиотека кодирования : XviD 1.2.1 (UTC 2008-12-04)
Аудио
Идентификатор : 1
Формат : MPEG Audio
Версия формата : Version 1
Профиль формата : Layer 3
Режим : Joint stereo
Расширение режима : MS Stereo
Идентификатор кодека : 55
Идентификатор кодека/Подсказка : MP3
Продолжительность : 1 ч. 19 м.
Вид битрейта : Постоянный
Битрейт : 192 Кбит/сек
Каналы : 2 канала
Частота : 48,0 КГц
Метод сжатия : С потерями
Размер потока : 110 Мбайт (14%)
Выравнивание : Соединение по промежуткам
Продолжительность промежутка : 80 мс. (2,00 видеокадра)
Время предзагрузки промежутка : 504 мс.
Библиотека кодирования : LAME3.97
Настройки программы : -m j -V 4 -q 2 -lowpass 18.6 -b 192

Скриншоты


[cybertorrent.ru].t136.torrent 
Торрент: Зарегистрирован [ 2018-02-15 13:57 ] · 2FBB80EC44B153CD9C2768FB629F1CFDE73F52BF

Скачать .torrent

Скачать

16 KB

Статус: проверено
Скачан: 0 раз
Размер: 798 MB
Профиль [ЛС]
Показать сообщения:    

Текущее время: 28-Май 08:07

Часовой пояс: UTC ± 0



Вы не можете начинать темы
Вы не можете отвечать на сообщения
Вы не можете редактировать свои сообщения
Вы не можете удалять свои сообщения
Вы не можете голосовать в опросах
Вы не можете прикреплять файлы к сообщениям
Вы можете скачивать файлы