Статистика раздачи
Размер:  8,54 GB   |    Зарегистрирован:  6 месяцев 24 дня   |    Скачан:  0 раз

Полного источника не было: Никогда

   
 

Гость ®

Пол:
Не указан

Супергёрл / Supergirl
Год выпуска: 2018
Страна: США
Жанр: боевик, приключения, драма, фантастика
Продолжительность: ~ 00:46:00
Перевод: Профессиональный (многоголосый закадровый) LostFilm
Режиссёр: Глен Винтер
В ролях: Мелисса Бенойст, Дерек Мио, Jaidan Jiron, Бен Бегли, Лаура Бенанти, Мехкад Брукс, Дин Кэйн, Зэйн Эмори, Калиста Флокхарт, Тони Френч и др
Описание: Кара Зор-Эл спасаясь от гибели покидает свою родную планету Криптон в возрасте 12 лет. Она двоюродная сестра Супермена. Решила поселится на планете Земля и никому не выдавать свой секрет о сверхспособностях. Но по достижению 24 лет Кара понимает, что благодаря своей силе она способна спасти множество человеческих жизней и спасти от разрушения, воспользовавшись своей силой. Теперь и Кара встает на путь своего брата и становится оплотом безопасности для всего человечества.
-

| |Ссылка на предыдущие и альтернативные раздачи |
Качество: WEB-DLRip
Формат: AVI
Видео: ~ 1500-1900 Кбит/с, 720x400 (16:9), 23.976 fps
Аудио: (MP3, 48.0 KHz, 2 ch, 192 Кбит/с)
Субтитры: отсутствуют
Реклама: аудио, один раз в начале по 6 секунд; в видеоряде рекламная надпись сайта на протяжении всей серии в правом нижнем углу.

MediaInfo

General
Complete name : D:\Movies\Supergirl. Season 4 (WEB-DL l 400p l LostFilm)\Supergirl.S04E01.rus.LostFilm..avi
Format : AVI
Format/Info : Audio Video Interleave
File size : 540 MiB
Duration : 42 min 33 s
Overall bit rate mode : Variable
Overall bit rate : 1 773 kb/s
Writing application : Nandub v1.0rc2
Writing library : Nandub build 1853/release
Video
ID : 0
Format : MPEG-4 Visual
Format profile : Advanced Simple@L5
Format settings, BVOP : No
Format settings, QPel : No
Format settings, GMC : No warppoints
Format settings, Matrix : Default (MPEG)
Codec ID : XVID
Codec ID/Hint : XviD
Duration : 42 min 33 s
Bit rate : 1 573 kb/s
Width : 720 pixels
Height : 400 pixels
Display aspect ratio : 16:9
Frame rate : 23.976 (24000/1001) FPS
Original frame rate : 23.976 (23976/1000) FPS
Color space : YUV
Chroma subsampling : 4:2:0
Bit depth : 8 bits
Scan type : Progressive
Compression mode : Lossy
Bits/(Pixel*Frame) : 0.228
Stream size : 479 MiB (89%)
Writing library : XviD 1.2.1 (UTC 2008-12-04)
Audio
ID : 1
Format : MPEG Audio
Format version : Version 1
Format profile : Layer 3
Format settings : Joint stereo
Codec ID : 55
Codec ID/Hint : MP3
Duration : 42 min 33 s
Bit rate mode : Variable
Bit rate : 192 kb/s
Channel(s) : 2 channels
Sampling rate : 48.0 kHz
Frame rate : 41.667 FPS (1152 SPF)
Compression mode : Lossy
Stream size : 57.2 MiB (11%)
Alignment : Aligned on interleaves
Interleave, duration : 24 ms (0.58 video frame)
Interleave, preload duratio : 522 ms
Writing library : LAME3.97b
Encoding settings : -m j -V 4 -q 3 -lowpass 18.6 --abr 192

Скриншоты

Раздача ведется путем добавления новых серий

Когда раздача ведётся путём добавления новых серий, при каждом добавлении создётся новый торрент. Чтобы начать докачку новой серии, пользователям необходимо сделать следующее:
(1) остановить скачивание,
(2) удалить старый торрент у себя из клиента (старые серии удалять не надо),
(3) скачать новый торрент и запустить его у себя в клиенте вместо старого, при этом указать клиенту путь в старую папку, куда и должно происходить скачивание новых серий.
Ваш клиент при этом должен произвести хеширование (проверку) старой папки (если не производит сам - помогите ему сделать это), и будет докачивать только те серии, которых у вас ещё нет. Старые серии при этом не удаляются, а продолжают раздаваться!
Eсли вы уже удалили старые серии, то предотвратить повторную закачку старых серий можно, отжав галочку в соответсвующих местах при запуске нового торрента. По возможности, желательно не удалять старые серии как можно дольше, чтобы релизёр не столько продолжал раздавать старые серии, а смог сконцентрироваться на новых.
[cybertorrent.ru].t1361.torrent 
Торрент: Зарегистрирован [ 2019-03-23 16:40 ] · B8487D600DED11DB6DC1C6E5BBCCC1F189C2D05D

Скачать .torrent

Скачать

44 KB

Статус: проверено
Скачан: 0 раз
Размер: 8,54 GB
terms.php
Показать сообщения:    

Текущее время: 17-Окт 08:39

Часовой пояс: UTC ± 0



Вы не можете начинать темы
Вы не можете отвечать на сообщения
Вы не можете редактировать свои сообщения
Вы не можете удалять свои сообщения
Вы не можете голосовать в опросах
Вы не можете прикреплять файлы к сообщениям
Вы можете скачивать файлы