Статистика раздачи
Размер:  5,63 GB   |    Зарегистрирован:  6 месяцев 24 дня   |    Скачан:  0 раз

Полного источника не было: Никогда

   
 

Гость ®

Пол:
Не указан

Сирена | Siren- Год выпуска: 2019
Страна: США
Жанр: фэнтези, драма
Продолжительность: ~ 00:42:00
Перевод: Любительский (многоголосый закадровый) TVShows--Режиссёр: Джо Менендес, Ник Копус, Джон Бэдэм
В ролях: Алекс Роу, Элайн Пауэлл, Фола Эванс-Экинбола, Йен Вердён, Рина Оуэн, Тэмми Гиллис, Кертис Льюм, Ханна Левиен и др.-Описание: У каждого маленького городка есть свои истории, которые его жители передают из поколения в поколение. Небольшой прибрежный городок Бристоль Кейв когда-то был местом обитания русалок, и, если верить городским легендам, эти существа вовсе не были столь безобидными, как в мультфильмах или сказках. Может быть, все это выдумки, но Бену с детства нравилось слушать рассказы о русалках. Став взрослым, парень выучился на морского биолога, но он даже не подозревал, что однажды сможет убедиться в существовании русалок. Этому предшествовала встреча Бена с Рин – загадочной девушкой, которая однажды выскочила на дорогу перед его машиной. Бен довольно быстро понимает, что Рин – необычная девушка, тем более что после ее появления в Бристоль Кейве начинают происходить странные события. Что все это сулит их городку, жизнь в котором всегда была мирной и тихой?--
Качество: WEB-DLRip
Формат: AVI
Видео: XVID, 720x400, 23.976 fps, ~2000 kbps avg, ~0.29 bit/pixel
Аудио Rus: AC3, 48.0 KHz,6 channels, 384 kbps
Субтитры: нет
Реклама отсутствует
Все раздачи сериала

MediaInfo

General
Complete name : G:\Сирена (Сезон 2) TVShows\Siren.S02E01.WEB-DLRip.RGzsRutracker.Celta88.avi
Format : AVI
Format/Info : Audio Video Interleave
File size : 721 MiB
Duration : 42 min 7 s
Overall bit rate : 2 393 kb/s
Writing application : VirtualDubMod 1.5.10.3 | www.virtualdub-fr.org || (build 2550/release)
Writing library : VirtualDubMod build 2550/release
Video
ID : 0
Format : MPEG-4 Visual
Format profile : Advanced Simple@L5
Format settings, BVOP : 1
Format settings, QPel : No
Format settings, GMC : No warppoints
Format settings, Matrix : Custom
Codec ID : XVID
Codec ID/Hint : XviD
Duration : 42 min 7 s
Bit rate : 2 000 kb/s
Width : 720 pixels
Height : 400 pixels
Display aspect ratio : 16:9
Frame rate : 23.976 (24000/1001) FPS
Color space : YUV
Chroma subsampling : 4:2:0
Bit depth : 8 bits
Scan type : Progressive
Compression mode : Lossy
Bits/(Pixel*Frame) : 0.290
Stream size : 602 MiB (84%)
Writing library : XviD 73
Audio
ID : 1
Format : AC-3
Format/Info : Audio Coding 3
Mode extension : CM (complete main)
Format settings, Endianness : Big
Codec ID : 2000
Duration : 42 min 7 s
Bit rate mode : Constant
Bit rate : 384 kb/s
Channel(s) : 6 channels
Channel positions : Front: L C R, Side: L R, LFE
Sampling rate : 48.0 kHz
Frame rate : 31.250 FPS (1536 spf)
Bit depth : 16 bits
Compression mode : Lossy
Stream size : 116 MiB (16%)
Alignment : Split accross interleaves
Interleave, duration : 42 ms (1.00 video frame)
Interleave, preload duratio : 500 ms

Скриншоты

Внимание! Раздача ведётся путём добавления новых серий!

Внимание! Раздача ведётся путём добавления новых серий; при каждом добавлении создаётся новый торрент.
Чтобы начать докачку новой серии, пользователям необходимо сделать следующее:
1. Остановить скачивание.
2. Удалить старый торрент у себя из клиента (старые серии удалять не надо).
3. Скачать новый торрент и запустить его у себя в клиенте вместо старого, при этом указать клиенту путь в старую папку куда и должно происходить скачивание новых серий.
Ваш клиент при этом должен произвести хеширование (проверку) старой папки (если не производит сам - помогите ему сделать это), и будет докачивать только те серии которых у вас ещё нет. Старые серии при этом не удаляются, а продолжают раздаваться!
Eсли вы уже удалили старые серии, то предотвратить повторную закачку старых серий можно, отжав галочку в соответствующих местах при запуске нового торрента.
Релиз группы:
[cybertorrent.ru].t1364.torrent 
Торрент: Зарегистрирован [ 2019-03-23 16:40 ] · CEE647D5DD3297071A9A04D4B9E663BC4BB42945

Скачать .torrent

Скачать

29 KB

Статус: проверено
Скачан: 0 раз
Размер: 5,63 GB
terms.php
Показать сообщения:    

Текущее время: 17-Окт 08:06

Часовой пояс: UTC ± 0



Вы не можете начинать темы
Вы не можете отвечать на сообщения
Вы не можете редактировать свои сообщения
Вы не можете удалять свои сообщения
Вы не можете голосовать в опросах
Вы не можете прикреплять файлы к сообщениям
Вы можете скачивать файлы