Статистика раздачи
Размер:  3,12 GB   |    Зарегистрирован:  8 месяцев 26 дней   |    Скачан:  0 раз

Полного источника не было: Никогда

Личеров:  1  [  0 KB/s  ]  
 
   
 
 

android ®

Пол:
Не указан
Стаж:
8 месяцев 27 дней
Сообщений:
79

Юные Черепашки Мутанты Ниндзя / Teenage Mutant Ninja Turtles -Страна: США
Жанр: Боевик, Комедия, Фэнтази
Продолжительность: Каждая серия-21 минута
Год выпуска: 2003
Перевод: Профессиональный (дублированный)
Русские субтитры: нет-Режиссёр: Chuck Patton
Описание: Леонардо! Рафаэль! Микеланджело! Донателло!
Мудрый сэнсэй Мастер Сплинтер превратил юных черепашек в одну непобедимую
зеленую боевую машину!-Список серий:
09. Сильнейший Ниндзя
11. Возвращение Нано
12. Вот-так Крок
13. Возвращение в Подземелье
14. Война в городе, Часть 1
15. Война в городе, Часть 2
16. Война в городе, Часть 3
17. Мусорлантида
18. Золотая шайба
19. Мошенник в доме, Часть 1
20. Мошенник в доме, Часть 2
23. Большая драка, Часть 1
24. Большая драка, Часть 2
25. Большая драка, Часть 3
26. Большая драка, Часть 4-Качество: TVRip
Формат: AVI
Видео: DivX 5, 640x480 (4:3), 29.970 fps, ~1201 Kbps
Аудио: MP3, 44100 KHz, 192 Kbps

MediaInfo

General
Complete name: D:\TV тюнер\TMNT(Дубляж ТВ3)\TMNT.2003-2004.s02.e11.The Return of Nano_(DARKAN).avi
Format: AVI
Format/Info: Audio Video Interleave
File size: 214 MiB
Duration: 21mn 14s
Overall bit rate: 1 407 Kbps
Writing application: Lavf51.12.1
Video
ID: 0
Format: MPEG-4 Visual
Format profile: Simple@L1
Format settings, BVOP: No
Format settings, QPel: No
Format settings, GMC: No warppoints
Format settings, Matrix: Default (H.263)
Codec ID: DX50
Codec ID/Hint: DivX 5
Duration: 21mn 14s
Bit rate: 1 201 Kbps
Width: 640 pixels
Height: 480 pixels
Display aspect ratio: 4:3
Frame rate: 29.970 fps
Color space: YUV
Chroma subsampling: 4:2:0
Bit depth: 8 bits
Scan type: Progressive
Compression mode: Lossy
Bits/(Pixel*Frame): 0.130
Stream size: 182 MiB (85%)
Writing library: Lavc51.40.4
Audio
ID: 1
Format: MPEG Audio
Format version: Version 1
Format profile: Layer 3
Mode: Joint stereo
Mode extension: MS Stereo
Codec ID: 55
Codec ID/Hint: MP3
Duration: 21mn 14s
Bit rate mode: Constant
Bit rate: 192 Kbps
Channel(s): 2 channels
Sampling rate: 44.1 KHz
Compression mode: Lossy
Stream size: 29.2 MiB (14%)
Alignment: Aligned on interleaves
Interleave, duration: 26 ms (0.78 video frame)

Скриншоты

[cybertorrent.ru].t1364.torrent 
Торрент: Зарегистрирован [ 2018-02-16 03:41 ] · 58AE709F673EA7C301B52C024EC796A519D53087

Скачать .torrent

Скачать

17 KB

Статус: проверено
Скачан: 0 раз
Размер: 3,12 GB
Профиль [ЛС]
Показать сообщения:    

Текущее время: 14-Ноя 19:42

Часовой пояс: UTC ± 0



Вы не можете начинать темы
Вы не можете отвечать на сообщения
Вы не можете редактировать свои сообщения
Вы не можете удалять свои сообщения
Вы не можете голосовать в опросах
Вы не можете прикреплять файлы к сообщениям
Вы можете скачивать файлы
Torrents24.ru открытый BitTorrent Torrents24.pl открытый BitTorrent CyberTorrent.ru открытый BitTorrent BtList.ru рейтинг BitTorrent трекеров Яндекс.Метрика