Статистика раздачи
Размер:  956 MB   |    Зарегистрирован:  6 месяцев 27 дней   |    Скачан:  0 раз
Сидов:  2  [  0 KB/s  ]  
   
 

Гость ®

Пол:
Не указан

Дрянь / Fleabag- Год выпуска: 2019
Страна: Великобритания
Жанр: драма
Продолжительность: ~ 00:25:00-Перевод: Профессиональный (многоголосый закадровый) | Jaskier-Режиссёр: Гарри Брэдбир, Тим Киркби-В ролях: Фиби Уоллер-Бридж, Бен Элдридж, Сиан Клиффорд, Джэми Деметриу, Билл Патерсон, Дженни Рейнсфорд, Хью Скиннер, Оливия Колман, Сара Дэйкин, Хью Дэннис-Описание: В основу сериала лёг одноименный моно-спектакль Фиби Уоллер Бридж 2013 года, получивший самые положительные отзывы критиков. Сюжет комедии заверчен вокруг молодой, упрямой и стабильно попадающей в неприятности феминистки Фиби, которая изо всех сил стремится изменить что-то в этом мире, но категорически неспособна принимать помощь и советы окружающих.- -[box=#aed8ff,#003465]Ссылка на предыдущие и альтернативные раздачи[/box]-Качество: WEB-DLRip
Формат: AVI
Видео: XviD, 720x304 (2.37:1), 50,000 кадров/сек, ~1500 Кбит/сек
Аудио Rus: MP3, 48 kHz, 2 ch, 128 Кбит/сек
Аудио Eng: MP3, 48 kHz, 2 ch, 128 Кбит/сек
Реклама: Присутствует звуковая (два раза в начале и конце по 10 сек.)--

MediaInfo

Общее
Полное имя : G:\Jaskier\Fleabag Season 2 (WEB-DLRip l 400p l Jaskier)\Fleabag.S02E01.WEB-DLRip.Jaskier.avi
Формат : AVI
Формат/Информация : Audio Video Interleave
Размер файла : 325 Мбайт
Продолжительность : 25 м. 31 с.
Общий поток : 1781 Кбит/сек
Программа кодирования : VirtualDubMod 1.5.10.2 (build 2540/release)
Библиотека кодирования : VirtualDubMod build 2540/release
Видео
Идентификатор : 0
Формат : MPEG-4 Visual
Профиль формата : Advanced Simple@L5
Настройки формата : BVOP2
Параметр BVOP формата : 2
Параметр QPel формата : Нет
Параметр GMC формата : Без точки перехода
Параметр матрицы формата : Default (MPEG)
Идентификатор кодека : XVID
Идентификатор кодека/Подсказка : XviD
Продолжительность : 25 м. 31 с.
Битрейт : 1500 Кбит/сек
Ширина : 720 пикселей
Высота : 304 пикселя
Соотношение сторон : 2,35:1
Частота кадров : 50,000 кадров/сек
Цветовое пространство : YUV
Субдискретизация насыщенности : 4:2:0
Битовая глубина : 8 бит
Тип развёртки : Прогрессивная
Метод сжатия : С потерями
Бит/(Пиксели*Кадры) : 0.137
Размер потока : 274 Мбайт (84%)
Библиотека кодирования : XviD 1.2.1 (UTC 2008-12-04)
Аудио #1
Идентификатор : 1
Формат : MPEG Audio
Версия формата : Version 1
Профиль формата : Layer 3
Настройки формата : Joint stereo / MS Stereo
Идентификатор кодека : 55
Идентификатор кодека/Подсказка : MP3
Продолжительность : 25 м. 31 с.
Вид битрейта : Постоянный
Битрейт : 128 Кбит/сек
Каналы : 2 канала
Частота : 48,0 КГц
Частота кадров : 41,667 кадра/сек (1152 SPF)
Метод сжатия : С потерями
Размер потока : 23,4 Мбайт (7%)
Выравнивание : Соединение по промежуткам
Продолжительность промежутка : 24 мс. (1,20 видеокадр)
Время предзагрузки промежутка : 504 мс.
Библиотека кодирования : LAME3.100
Настройки программы : -m j -V 4 -q 3 -lowpass 17 -b 128
Аудио #2
Идентификатор : 2
Формат : MPEG Audio
Версия формата : Version 1
Профиль формата : Layer 3
Настройки формата : Joint stereo / MS Stereo
Идентификатор кодека : 55
Идентификатор кодека/Подсказка : MP3
Продолжительность : 25 м. 31 с.
Вид битрейта : Постоянный
Битрейт : 128 Кбит/сек
Каналы : 2 канала
Частота : 48,0 КГц
Частота кадров : 41,667 кадра/сек (1152 SPF)
Метод сжатия : С потерями
Размер потока : 23,4 Мбайт (7%)
Выравнивание : Соединение по промежуткам
Продолжительность промежутка : 24 мс. (1,20 видеокадр)
Время предзагрузки промежутка : 504 мс.
Библиотека кодирования : LAME3.100
Настройки программы : -m j -V 4 -q 3 -lowpass 17 -b 128
-

Скриншоты

-

Раздача ведется путем добавления новых серий

Когда раздача ведётся путём добавления новых серий, при каждом добавлении создётся новый торрент. Чтобы начать докачку новой серии, пользователям необходимо сделать следующее:
(1) остановить скачивание,
(2) удалить старый торрент у себя из клиента (старые серии удалять не надо),
(3) скачать новый торрент и запустить его у себя в клиенте вместо старого, при этом указать клиенту путь в старую папку, куда и должно происходить скачивание новых серий.
Ваш клиент при этом должен произвести хеширование (проверку) старой папки (если не производит сам - помогите ему сделать это), и будет докачивать только те серии, которых у вас ещё нет. Старые серии при этом не удаляются, а продолжают раздаваться!
Eсли вы уже удалили старые серии, то предотвратить повторную закачку старых серий можно, отжав галочку в соответсвующих местах при запуске нового торрента. По возможности, желательно не удалять старые серии как можно дольше, чтобы релизёр не столько продолжал раздавать старые серии, а смог сконцентрироваться на новых.
-
[cybertorrent.ru].t1368.torrent 
Торрент: Зарегистрирован [ 2019-03-23 16:40 ] · E25CDD127A91214B390B44CFC80B61698FF32F6D

Скачать .torrent

Скачать

150 KB

Статус: проверено
Скачан: 0 раз
Размер: 956 MB
terms.php
Показать сообщения:    

Текущее время: 20-Окт 00:21

Часовой пояс: UTC ± 0



Вы не можете начинать темы
Вы не можете отвечать на сообщения
Вы не можете редактировать свои сообщения
Вы не можете удалять свои сообщения
Вы не можете голосовать в опросах
Вы не можете прикреплять файлы к сообщениям
Вы можете скачивать файлы