Статистика раздачи
Размер:  1,47 GB   |    Зарегистрирован:  6 месяцев 27 дней   |    Скачан:  0 раз

Полного источника не было: Никогда

   
 

karlll ®

Пол:
Не указан
Стаж:
7 месяцев 7 дней
Сообщений:
171

Господство Суперменов / Reign of the Supermen
Страна: США
Жанр: мультфильм, фантастика, боевик, комикс
Продолжительность: 01:27:13
Год выпуска: 2019
Перевод: Любительский (многоголосый закадровый) HDRezka Studio
Перевод 2: Любительский (двухголосый закадровый) AniStar
Русские субтитры: есть
Режиссёр: Сэм Лью / Sam Liu
Роли озвучивали: Кэмерон Монахэн, Розарио Доусон, Натан Филлион, Ребекка Ромейн, Рэйн Уилсон, Джерри О`Коннелл, Дженнифер Хейл, Кристофер Горам, Шемар Мур, Бренда СтронгКэмерон Монахэн, Розарио Доусон, Натан Филлион, Ребекка Ромейн, Рэйн Уилсон, Джерри О`Коннелл, Дженнифер Хейл, Кристофер Горам, Шемар Мур, Бренда Стронг
Описание: Продолжение мультфильма "Смерть Супермена". История начинается через шесть месяцев после трагической смерти Супермена, погибшего во время сражения с чудовищным злодеем по имени Думсдэй. Мир все еще оплакивает потерю великого героя, когда его тело невероятным образом исчезает из могилы. В то время как власти проводят расследование, ситуация в городе усложняется внезапным появлением новых сверхлюдей, желающих стать преемниками Человека из стали. Супербой, Киборг-Супермен, Сталь и Уничтожитель – каждый из них отличается уникальным характером и стилем борьбы с преступностью, но лишь один сможет занять место супергероя.
Семпл: http://multi-up.com/1226476
Качество: BDRip-AVC BDRemux
Формат: MKV
Видео: AVC, 1024x576, 23.976 fps, 1450 Kbps
Аудио: Russian MVO: 48,0 KHz, AC3, 2 ch, 192 kbps
Аудио 2: Russian DVO: 48,0 KHz, AC3, 6 ch, 384 kbps
Аудио 3: English: 48,0 KHz, AC3, 6 ch, 384 kbps
Субтитры: русские (полные), английские (полные)

Подробные технические данные

General
UniqueID : 170168053787988870651438717625238560598 (0x80052CCF36D93205A1558DAE24181F56)
Complete name : D:\Reign of the Supermen (2019).mkv
Format : Matroska
File size : 1.47 GiB
Duration : 1h 27mn
Overall bit rate : 2 412 Kbps
Encoded date : UTC 2019-03-15 13:38:36
Writing application : mkvmerge v8.2.0 ('World of Adventure') 32bit
Writing library : libebml v1.3.1 + libmatroska v1.4.2
Video
ID : 1
Format : AVC
Format/Info : Advanced Video Codec
Format profile : High@L4.1
Format settings, CABAC : Yes
Format settings, ReFrames : 12 frames
Codec ID : V_MPEG4/ISO/AVC
Duration : 1h 27mn
Bit rate : 1 450 Kbps
Width : 1 024 pixels
Height : 576 pixels
Display aspect ratio : 16:9
Frame rate : 23.976 fps
Color space : YUV
Chroma subsampling : 4:2:0
Bit depth : 8 bits
Scan type : Progressive
Bits/(Pixel*Frame) : 0.103
Stream size : 876 MiB (58%)
Writing library : x264 core 152 r2851 ba24899
Encoding settings : cabac=1 / ref=12 / deblock=1:-3:-2 / analyse=0x3:0x113 / me=umh / subme=10 / psy=1 / psy_rd=1.03:0.08 / mixed_ref=1 / me_range=32 / chroma_me=1 / trellis=2 / 8x8dct=1 / cqm=0 / deadzone=21,11 / fast_pskip=0 / chroma_qp_offset=-3 / threads=12 / lookahead_threads=3 / sliced_threads=0 / nr=0 / decimate=0 / interlaced=0 / bluray_compat=0 / constrained_intra=0 / bframes=10 / b_pyramid=2 / b_adapt=2 / b_bias=0 / direct=3 / weightb=1 / open_gop=0 / weightp=2 / keyint=240 / keyint_min=23 / scenecut=40 / intra_refresh=0 / rc_lookahead=40 / rc=2pass / mbtree=1 / bitrate=1450 / ratetol=1.0 / qcomp=0.65 / qpmin=0 / qpmax=51 / qpstep=4 / cplxblur=20.0 / qblur=0.5 / ip_ratio=1.35 / aq=1:1.00
Language : English
Color primaries : BT.709-5, BT.1361, IEC 61966-2-4, SMPTE RP177
Transfer characteristics : BT.709-5, BT.1361
Matrix coefficients : BT.709-5, BT.1361, IEC 61966-2-4 709, SMPTE RP177
Audio #1
ID : 2
Format : AC-3
Format/Info : Audio Coding 3
Mode extension : CM (complete main)
Codec ID : A_AC3
Duration : 1h 27mn
Bit rate mode : Constant
Bit rate : 192 Kbps
Channel(s) : 2 channels
Channel positions : Front: L R
Sampling rate : 48.0 KHz
Bit depth : 16 bits
Compression mode : Lossy
Stream size : 120 MiB (8%)
Title : MVO (HDRezka Studio)
Language : Russian
Audio #2
ID : 3
Format : AC-3
Format/Info : Audio Coding 3
Mode extension : CM (complete main)
Codec ID : A_AC3
Duration : 1h 27mn
Bit rate mode : Constant
Bit rate : 384 Kbps
Channel(s) : 6 channels
Channel positions : Front: L C R, Side: L R, LFE
Sampling rate : 48.0 KHz
Bit depth : 16 bits
Compression mode : Lossy
Stream size : 240 MiB (16%)
Title : DVO (AniStar)
Language : Russian
Audio #3
ID : 4
Format : AC-3
Format/Info : Audio Coding 3
Mode extension : CM (complete main)
Codec ID : A_AC3
Duration : 1h 27mn
Bit rate mode : Constant
Bit rate : 384 Kbps
Channel(s) : 6 channels
Channel positions : Front: L C R, Side: L R, LFE
Sampling rate : 48.0 KHz
Bit depth : 16 bits
Compression mode : Lossy
Stream size : 240 MiB (16%)
Language : English
Text #1
ID : 5
Format : UTF-8
Codec ID : S_TEXT/UTF8
Codec ID/Info : UTF-8 Plain Text
Language : Russian
Text #2
ID : 6
Format : UTF-8
Codec ID : S_TEXT/UTF8
Codec ID/Info : UTF-8 Plain Text
Language : English

Скриншоты

[cybertorrent.ru].t1369.torrent 
Торрент: Зарегистрирован [ 2019-03-23 16:40 ] · 8B07AC0925ABA053DF29A5CD63C2DD03368CF7C2

Скачать .torrent

Скачать

15 KB

Статус: проверено
Скачан: 0 раз
Размер: 1,47 GB
terms.php
Профиль ЛС
Показать сообщения:    

Текущее время: 20-Окт 12:22

Часовой пояс: UTC ± 0



Вы не можете начинать темы
Вы не можете отвечать на сообщения
Вы не можете редактировать свои сообщения
Вы не можете удалять свои сообщения
Вы не можете голосовать в опросах
Вы не можете прикреплять файлы к сообщениям
Вы можете скачивать файлы