Статистика раздачи
Размер:  1,45 GB   |    Зарегистрирован:  3 месяца 6 дней   |    Скачан:  0 раз

Полного источника не было: Никогда

 
   
 
 

lopster ®

Пол:
Не указан
Стаж:
3 месяца 6 дней
Сообщений:
612

Год Собаки
Год выпуска: 1994
Жанр: социальная драма
Продолжительность: 02:06:47
Режиссер: Семен Аранович
В ролях: Инна Чурикова, Игорь Скляр, Александр Феклистов, Михаил Дорофеев, Сергей Бобров, Геннадий Меньшиков, Эра Зиганшина, Валентина Ковель, Роберт Вааб, Диана Шишляева, Ирина Полянская, Дмитрий Круглов
Описание: Короткое счастье бывший заключенный Сергей и одинокая женщина Вера находят в покинутом поселке, зараженном радиацией. Здесь, на оставленной Богом и людьми земле, они снова начинают жить заново, постепенно узнавая и привязываясь друг к другу. Здесь к ним приходит первая в их жизни любовь.
Доп. информация:
Оператор: Юрий Шайгарданов
Сценарий: Семен Аранович, Альбина Шульгина, Вадим Михайлов при участии Зои Кудри
Продюсеры: Семен Аранович, Фрижета Гукасян, Вячеслав Тельнов, Ги Селигман
Монтажер: Тамара Гусева
Композитор: Олег Каравайчук
Художники: Марксэн Гаухман-Свердлов, Виктор Иванов
Костюмы: Анжела Салунова
Премии и награды:
* 1994г. - Приз за лучшую мужскую роль на ОРКФ "Кинотавр" в Сочи (Игорь Скляр).
* 1994г. - Приз за лучшую женскую роль на ОРКФ "Кинотавр" в Сочи (Инна Чурикова).
* 1994г. - Приз "Серебряный Медведь" на МКФ в Берлине (Семен Аранович).
* 1994г. - Приз за лучшую женскую роль на МКФ "Фестиваль фестивалей" (Инна Чурикова).
* 1994г. - Приз телепрограммы "Экспресс-кино" "за женственность, талант, человечность" на МКФ "Фестиваль фестивалей" (Инна Чурикова).
* 1994г. - Приз "Серебряный парус" на КФ русского кино в Сан-Рафаэле (Семен Аранович).
* 1994г. - Приз "за классическое воплощение русского женского характера" на КФ "Женский мир" в Набережных Челнах (Инна Чурикова).

Рецензия от Михаила Иванова

Игорь Скляр в роли уголовника, первая "ходка" которого состоялась в 14 лет. Мать - алкоголичка, сестра - проститутка, отца не знал. Свободы толком тоже. Сел в одной стране, вышел в другой - при возрождаемом капитализме. В чем-то он так и остался подростком, можно даже сказать, чистым и неиспорченным, а в чем-то его жизненный опыт был очень велик, хотя и узок. Влюбился в живущую в общежитии девушку (Инну Чурикову), которой цыганка нагадала, что вторую половину жизни она будет счастлива. Убил оскорбившего ее отвратительного начальника "общаги", и они вместе бежали. Попали в зону радиоактивного заражения, где, оставшись совсем одни, оба впервые узнали, что такое счастье. Но и туда проникли люди. Мародеры. На этом счастье, да и жизнь закончились. Страшная, мощная драма, что вовсе не означает, что смотрится она тяжело. Наоборот, оторваться от фильма просто невозможно. Потом немного страшно. Пропускать не советую. Очень хороший фильм.
DVDRip делался с этого DVD5. Но, т.к. это укороченная версия, недостающая сцена продолжительностью 5 мин. 37 сек. была взята из DVD5 более скромного качества и вставлена методом клипирования в AviSynth'е на своё законное место.
Релиз: problesk
Качество видео: DVDRip
Формат видео: AVI
Видео: 688x512 (1.34:1), 25 fps, XviD MPEG-4 ~1500 kbps avg, 0.17 bit/pixel
Аудио: 48 kHz, MPEG Layer 3, 2 ch, ~128.00 kbps avg

MI

Код:Общее
Полное имя : C:\otkat\Видео\Год собаки\God.sobaki.1994.XviD.DVDRip.problesk.avi
Формат : AVI
Формат/Информация : Audio Video Interleave
Размер файла : 1,45 Гбайт
Продолжительность : 2 ч. 6 м.
Общий поток : 1638 Кбит/сек
ILIU : http://img692.imageshack.us/img692/1930/probleskbanner9.gif
IRIP : problesk
Видео
Идентификатор : 0
Формат : MPEG-4 Visual
Профиль формата : Advanced Simple@L5
Параметр BVOP формата : 1
Параметр QPel формата : Нет
Параметр GMC формата : Без точки перехода
Параметр матрицы формата : Default (MPEG)
Режим смешивания : Сжатый битовый поток
Идентификатор кодека : XVID
Идентификатор кодека/Подсказка : XviD
Продолжительность : 2 ч. 6 м.
Битрейт : 1500 Кбит/сек
Ширина : 688 пикселей
Высота : 512 пикселей
Соотношение сторон : 4:3
Частота кадров : 25,000 кадров/сек
Цветовое пространство : YUV
Субдискретизация насыщенности : 4:2:0
Битовая глубина : 8 бит
Тип развёртки : Прогрессивная
Метод сжатия : С потерями
Бит/(Пиксели*Кадры) : 0.170
Размер потока : 1,33 Гбайт (92%)
Библиотека кодирования : XviD 1.2.0.dev47 (UTC 2006-11-01)
Аудио
Идентификатор : 1
Формат : MPEG Audio
Версия формата : Version 1
Профиль формата : Layer 3
Режим : Joint stereo
Идентификатор кодека : 55
Идентификатор кодека/Подсказка : MP3
Продолжительность : 2 ч. 6 м.
Вид битрейта : Постоянный
Битрейт : 128 Кбит/сек
Каналы : 2 канала
Частота : 48,0 КГц
Метод сжатия : С потерями
Размер потока : 116 Мбайт (8%)
Выравнивание : Соединение по промежуткам
Продолжительность промежутка : 40 мс. (1,00 видеокадр)
Время предзагрузки промежутка : 504 мс.
[cybertorrent.ru].t137.torrent 
Торрент: Зарегистрирован [ 2018-02-15 13:57 ] · ADF5030C052AF882F75BE06A0707E7DFA48CCFF1

Скачать .torrent

Скачать

15 KB

Статус: проверено
Скачан: 0 раз
Размер: 1,45 GB
Профиль [ЛС]
Показать сообщения:    

Текущее время: 22-Май 00:00

Часовой пояс: UTC ± 0



Вы не можете начинать темы
Вы не можете отвечать на сообщения
Вы не можете редактировать свои сообщения
Вы не можете удалять свои сообщения
Вы не можете голосовать в опросах
Вы не можете прикреплять файлы к сообщениям
Вы можете скачивать файлы