Статистика раздачи
Размер:  744 MB   |    Зарегистрирован:  6 месяцев 24 дня   |    Скачан:  0 раз

Полного источника не было: Никогда

   
 

Гость ®

Пол:
Не указан

Случай в тайге
Год выпуска: 1953
Жанр: Киноповесть
Продолжительность: 01:25:56.600 (128915 frames)
Субтитры: нет
Режиссер: Юрий Егоров, Юрий Победоносцев
В ролях: Борис Битюков , Римма Шорохова , Александр Антонов , Муза Крепкогорская , Александр Тимонтаев, Владимир Гуляев, Константин Немоляев, Анатолий Кубацкий, Иван Рыжов, Валентина Беляева
Описание: В сибирский промхоз Согры едет из Москвы молодой научный сотрудник Андрей Сазонов, чтобы внедрить новый метод разведения соболя. Пробираясь через тайгу, он встречается с охотоведом Еленой Седых. Девушка увлечена рассказом Андрея о богатых возможностях нового метода. В пути молодые люди встречают лучшего в районе охотника. Правда, встреча происходит в тот момент, когда тот занимается браконьерством. На охотника за это налагают штраф, и он, обидевшись, со всей своей бригадой уходит из промхоза, ставя под угрозу выполнение плана и реализацию замыслов Андрея.
Качество: DVDRip
Формат: AVI
Видео кодек: XviD
Аудио кодек: МР3
Видео: 640x480 (1.33:1), 25 fps, XviD build 73 ~1071 kbps avg, 0.14 bit/pixel
Аудио: 48 kHz, MPEG Layer 3, 2 ch, ~128.00 kbps avg

Медиаинфо

General
Complete name : E:\004 Мои раздачи\Случай в тайге 745\sluchai_v_taige_745_by_bm11.avi
Format : AVI
Format/Info : Audio Video Interleave
File size : 744 MiB
Duration : 1h 25mn
Overall bit rate : 1 210 Kbps
Director : bm11
Writing application : VirtualDubMod 1.5.10.3 | www.virtualdub-fr.org || (build 2550/release)
Video
ID : 0
Format : MPEG-4 Visual
Format profile : Advanced Simple@L5
Format settings, BVOP : 1
Format settings, QPel : No
Format settings, GMC : No warppoints
Format settings, Matrix : Custom
Codec ID : XVID
Codec ID/Hint : XviD
Duration : 1h 25mn
Bit rate : 1 072 Kbps
Width : 640 pixels
Height : 480 pixels
Display aspect ratio : 4:3
Frame rate : 25.000 fps
Color space : YUV
Chroma subsampling : 4:2:0
Bit depth : 8 bits
Scan type : Progressive
Compression mode : Lossy
Bits/(Pixel*Frame) : 0.140
Stream size : 659 MiB (89%)
Writing library : XviD 73
Audio
ID : 1
Format : MPEG Audio
Format version : Version 1
Format profile : Layer 3
Codec ID : 55
Codec ID/Hint : MP3
Duration : 1h 25mn
Bit rate mode : Constant
Bit rate : 128 Kbps
Channel(s) : 2 channels
Sampling rate : 48.0 KHz
Compression mode : Lossy
Stream size : 78.7 MiB (11%)
Alignment : Aligned on interleaves
Interleave, duration : 40 ms (1.00 video frame)
Interleave, preload duratio : 504 ms
Writing library : LAME3.99r
Encoding settings : -m s -V 4 -q 2 -lowpass 17 -b 128
[cybertorrent.ru].t1372.torrent 
Торрент: Зарегистрирован [ 2019-03-23 16:40 ] · F04610735FDD3A60C7F0F225EBBD04A43A69FBE8

Скачать .torrent

Скачать

15 KB

Статус: проверено
Скачан: 0 раз
Размер: 744 MB
terms.php
Показать сообщения:    

Текущее время: 17-Окт 01:26

Часовой пояс: UTC ± 0



Вы не можете начинать темы
Вы не можете отвечать на сообщения
Вы не можете редактировать свои сообщения
Вы не можете удалять свои сообщения
Вы не можете голосовать в опросах
Вы не можете прикреплять файлы к сообщениям
Вы можете скачивать файлы