Статистика раздачи
Размер:  4,83 GB   |    Зарегистрирован:  7 месяцев 5 дней   |    Скачан:  0 раз

Полного источника не было: Никогда

Личеров:  1  [  0 KB/s  ]  
 
   
 
 

AleXa ®

Пол:
Не указан
Стаж:
7 месяцев 5 дней
Сообщений:
51

Футурама / Futurama / 6 Сезон / BDRip-AVC / 2X2 / Кубик в Кубе / Vo-production / LostFilm
Страна: США
Жанр: Мультфильм, комедия, фантастика
Сезон (количество): 6
Серии (количество): 1-13
Продолжительность: 00:21:00
Год выпуска: 2010
Перевод: Профессиональный (многоголосый закадровый) - 2X2
Перевод: Профессиональный (многоголосый закадровый) - Кубик в Кубе
Перевод: Профессиональный (многоголосый закадровый) - Vo-production
Перевод: Профессиональный (многоголосый закадровый) - LostFilm
Русские субтитры: есть
Режиссёр: Мэтт Гроунинг
Роли озвучивали: Билли Уэст, Кейти Сэгал, Джон ДиМаджио, Фил ЛаМарр, Лоурэн Том...
Описание: Сериал начинается с того, что разносчик пиццы из Нью-Йорка Филипп Джей Фрай случайно, как это кажется на первый взгляд, был заморожен в криогенной камере ровно в 00 часов 00 минут 00 секунд 1 января 2000 года. Он был разморожен тысячу лет спустя, 31 декабря 2999 года, и обнаружил себя в городе будущего Нью-Нью-Йорке. Знакомясь со своей будущей коллегой Турангой Лилой, Фрай пытается избежать принудительного назначения на работу курьером, кем он и был в прошлой жизни, и внедрения ему карьерного чипа — микросхемы, вшиваемой под кожу и определяющей род занятий своего носителя. Лила, в это время работающая инспектором по раздаче профессий, догоняя Фрая, чтобы вживить ему чип, в результате выслушивания речей Фрая о его прошлой никчемной жизни курьером, отказывается от работы инспектора, которая ей не по душе, и вместе они находят очень дальнего потомка Фрая (его пра-пра-пра-…-пра-внучатого племянника) Хьюберта Фарнсворта — маразматичного 160-летнего гениального ученого-склеротика, который берет их на работу в свою небольшую компанию «Межпланетный экспресс», занимающуюся межгалактическими грузоперевозками, на должность курьера. «Межпланетный экспресс» — это маленький бизнес профессора, окупающий его гениальные, но иногда весьма сомнительные исследования и изобретения.
Качество: BDRip
Формат: MKV
Видео: 720 X 400 / 23.976 fps / ~1200 kbps
Аудио: AC3 / 48.0 kHz / 2.0 ch / ~192 kbps / 2X2
Аудио 2: AC3 / 48.0 kHz / 2.0 ch / ~192 kbps / Кубик в Кубе
Аудио 3: AC3 / 48.0 kHz / 5.1 ch / ~384 kbps / Vo-production
Аудио 4: AC3 / 48.0 kHz / 2.0 ch / ~192 kbps / LostFilm
Аудио 5: AC3 / 48.0 kHz / 5.1 ch / ~384 kbps / Английская
Аудио 6: AАC / 48.0 kHz / 2.0 ch / ~224 kbps / Комментарии, английская
Субтитры: Русские, английские
Семпл - http://d2t. СПАМ

Серии

0601 - Rebirth (Перерождение)
0602 - In-A-Gadda-Da-Leela (В Лилейском саду)
0603 - Attack of the Killer App (Атака убойной проги)
0604 - Proposition Infinity (Поправка «Бесконечность»)
0605 - The Duh-Vinci Code (Код нда Винчи)
0606 - Lethal Inspection (Смертельный осмотр)
0607 - The Late Philip J. Fry (Опаздывающий Филип Дж. Фрай)
0608 - That Darn Katz! (Чёртовы Коты!)
0609 - A Clockwork Origin (Происхождение по часовому механизму)
0610 - The Prisoner of Benda (Пленник Бендера)
0611 - Lrrreconcilable Ndndifferences (Совместимые Различия Лррра и Нднд)
0612 - The Mutants Are Revolting (Мутанты протестуют)
0613 - The Futurama Holiday Spectacular (Захватывающие праздники Футурамы)
-За синхронизацию сабов и дорожек 1 и 2 благодарим uxTuaHgp
За 6-канальную дорогу Vo-production благодарим vorec
Работа с видео D2T-

Подробные технические данные

General
Unique ID : 199804651790710871343010192640726164390 (0x9650F9E7A9F09DD1B0C2E79E092A63A6)
Complete name : Q:\Сериалы\Футурама\Futurama_6s_BDRip-AVC\0602 - In-A-Gadda-Da-Leela.mkv
Format : Matroska
File size : 361 MiB
Duration : 21mn 39s
Overall bit rate : 2 327 Kbps
Movie name : Релиз - D2T/"Криволапый ювелир"
Encoded date : UTC 2011-05-05 17:34:50
Writing application : mkvmerge v4.0.0 ('The Stars were mine') сборка от Jun 6 2010 16:18:42
Writing library : libebml v1.0.0 libmatroska v1.0.0
Video
ID : 1
Format : AVC
Format/Info : Advanced Video Codec
Format profile : High@L3.0
Format settings, CABAC : Yes
Format settings, ReFrames : 4 frames
Format settings, GOP : M=1, N=48
Codec ID : V_MPEG4/ISO/AVC
Duration : 21mn 39s
Width : 720 pixels
Height : 400 pixels
Display aspect ratio : 16:9
Frame rate : 23.976 fps
Color space : YUV
Chroma subsampling : 4:2:0
Bit depth : 8 bits
Scan type : Progressive
Writing library : x264 core 112 r1867 22bfd31
Encoding settings : cabac=1 / ref=4 / deblock=1:0:0 / analyse=0x3:0x112 / me=tesa / subme=9 / psy=1 / psy_rd=1.00:0.00 / mixed_ref=1 / me_range=16 / chroma_me=1 / trellis=2 / 8x8dct=1 / cqm=0 / deadzone=21,11 / fast_pskip=1 / chroma_qp_offset=-2 / threads=6 / sliced_threads=0 / nr=0 / decimate=1 / interlaced=0 / constrained_intra=0 / bframes=4 / b_pyramid=0 / b_adapt=2 / b_bias=0 / direct=3 / weightb=0 / open_gop=0 / weightp=2 / keyint=150 / keyint_min=1 / scenecut=33 / intra_refresh=0 / rc=cqp / mbtree=0 / qp=18 / ip_ratio=1.40 / pb_ratio=1.30 / aq=0
Language : English
Audio #1
ID : 2
Format : AC-3
Format/Info : Audio Coding 3
Mode extension : CM (complete main)
Codec ID : A_AC3
Duration : 21mn 39s
Bit rate mode : Constant
Bit rate : 192 Kbps
Channel(s) : 2 channels
Channel positions : Front: L R
Sampling rate : 48.0 KHz
Bit depth : 16 bits
Compression mode : Lossy
Stream size : 29.7 MiB (8%)
Title : 2x2
Language : Russian
Audio #2
ID : 3
Format : AC-3
Format/Info : Audio Coding 3
Mode extension : CM (complete main)
Codec ID : A_AC3
Duration : 21mn 39s
Bit rate mode : Constant
Bit rate : 192 Kbps
Channel(s) : 2 channels
Channel positions : Front: L R
Sampling rate : 48.0 KHz
Bit depth : 16 bits
Compression mode : Lossy
Stream size : 29.7 MiB (8%)
Title : Кубик в кубе
Language : Russian
Audio #3
ID : 4
Format : AC-3
Format/Info : Audio Coding 3
Mode extension : CM (complete main)
Codec ID : A_AC3
Duration : 21mn 39s
Bit rate mode : Constant
Bit rate : 384 Kbps
Channel(s) : 6 channels
Channel positions : Front: L C R, Side: L R, LFE
Sampling rate : 48.0 KHz
Bit depth : 16 bits
Compression mode : Lossy
Stream size : 59.5 MiB (17%)
Title : Vo-production
Language : Russian
Audio #4
ID : 5
Format : AC-3
Format/Info : Audio Coding 3
Mode extension : CM (complete main)
Codec ID : A_AC3
Duration : 21mn 39s
Bit rate mode : Constant
Bit rate : 192 Kbps
Channel(s) : 2 channels
Channel positions : Front: L R
Sampling rate : 48.0 KHz
Bit depth : 16 bits
Compression mode : Lossy
Stream size : 29.7 MiB (8%)
Title : LostFilm
Language : Russian
Audio #5
ID : 6
Format : AC-3
Format/Info : Audio Coding 3
Mode extension : CM (complete main)
Codec ID : A_AC3
Duration : 21mn 39s
Bit rate mode : Constant
Bit rate : 384 Kbps
Channel(s) : 6 channels
Channel positions : Front: L C R, Side: L R, LFE
Sampling rate : 48.0 KHz
Bit depth : 16 bits
Compression mode : Lossy
Stream size : 59.5 MiB (17%)
Language : English
Audio #6
ID : 7
Format : AAC
Format/Info : Advanced Audio Codec
Format profile : HE-AAC / LC
Codec ID : A_AAC
Duration : 21mn 39s
Channel(s) : 2 channels
Channel positions : Front: L R
Sampling rate : 48.0 KHz / 24.0 KHz
Compression mode : Lossy
Title : ENG, Commentary
Language : English
Text #1
ID : 8
Format : UTF-8
Codec ID : S_TEXT/UTF8
Codec ID/Info : UTF-8 Plain Text
Title : RUS
Language : Russian
Text #2
ID : 9
Format : UTF-8
Codec ID : S_TEXT/UTF8
Codec ID/Info : UTF-8 Plain Text
Title : ENG
Language : English
Menu
00:00:00.000 : en:00:00:00.000
00:07:04.049 : en:00:07:04.049
00:15:00.108 : en:00:15:00.108
00:21:07.433 : en:00:21:07.433

Релиз

"Криволапый ювелир"

Внимание! Раздача ведётся путём добавления новых серий

Внимание! Раздача ведётся путём добавления новых серий; при каждом добавлении создётся новый торрент. Чтобы начать докачку новой серии, пользователям необходимо сделать следующее:
(1) остановить скачивание,
(2) удалить старый торрент у себя из клиента (старые серии удалять не надо),
(3) скачать новый торрент и запустить его у себя в клиенте вместо старого, при этом указать клиенту путь в старую папку куда и должно происходить скачивание новых серий.
Ваш клиент при этом должен произвести хеширование (проверку) старой папки (если не производит сам - помогите ему сделать это), и будет докачивать только те серии которых у вас ещё нет. Старые серии при этом не удаляются, а продолжают раздаваться!
Eсли вы уже удалили старые серии, то предотвратить повторную закачку старых серий можно, отжав галочку в соответсвующих местах при запуске нового торрента. По возможности, желательно не удалять старые серии как можно дольше чтобы релизёр не столько продолжал раздавать старые серии, а смог сконцентрироваться на новых.
[cybertorrent.ru].t1378.torrent 
Торрент: Зарегистрирован [ 2018-02-16 03:41 ] · 91E5ECCDD4B314DC2C4EFE9EE08997D889C8DEFE

Скачать .torrent

Скачать

25 KB

Статус: проверено
Скачан: 0 раз
Размер: 4,83 GB
Профиль [ЛС]
Показать сообщения:    

Текущее время: 21-Сен 09:28

Часовой пояс: UTC ± 0



Вы не можете начинать темы
Вы не можете отвечать на сообщения
Вы не можете редактировать свои сообщения
Вы не можете удалять свои сообщения
Вы не можете голосовать в опросах
Вы не можете прикреплять файлы к сообщениям
Вы можете скачивать файлы
Torrents24.ru открытый BitTorrent Torrents24.pl открытый BitTorrent CyberTorrent.ru открытый BitTorrent BtList.ru рейтинг BitTorrent трекеров Яндекс.Метрика