Статистика раздачи
Размер:  743 MB   |    Зарегистрирован:  3 месяца 12 дней   |    Скачан:  0 раз

Полного источника не было: Никогда

 
   
 
 

lopster ®

Пол:
Не указан
Стаж:
3 месяца 12 дней
Сообщений:
612

Александр. Невская битва
Год выпуска: 2008
Жанр: драма
Продолжительность: 01:55:27
Режиссер: Игорь Калёнов
В ролях: Антон Пампушный, Светлана Бакулина, Игорь Ботвин, Павел Трубинер, Богдан Ступка, Тунгышбай Жаманкулов, Сергей Лысов, Юлия Галкина, Лев Елисеев, Сергей Русскин, Семен Мендельсон, Денис Шведов, Александр Стёпин, Нодар Джанелидзе, Валентин Захаров, Валерий Кухарешин, Артем Лещик, Андрей Федорцов, Юрий Тарасов, Егор Бакулин
Описание: Первая половина XIII века. Новгородский князь Александр любим народом, но имеет и многих противников. Огромная армия Батыя угрожает нашествием с юга. Шведские рыцари замышляют крестовый поход на Русь, они засылают в Новгород шпиона. Боярская оппозиция готовит покушение на Александра, вынашивает предательский план сдачи города. В довершение ко всему, лучший друг князя Ратмир проникся страстью к красавице-княжне и теперь может стать для Александра опасным врагом. Князь молод, но жизнь требует от него воинской доблести, дальновидности дипломата и глубокой житейской мудрости.
Все раздачи фильма: Александр. Невская битва
Автор рипа: Der_Gott
Исходник: BDRip 1080 by Fedorka
Качество видео: HDRip
Формат видео: AVI
Видео: 720x304 (2.37:1), 23.976 fps, XviD build 50 ~761 kbps avg, 0.14 bit/pixel
Аудио: 48 kHz, MPEG Layer 3, 2 ch, ~128.00 kbps avg

MI

Код:Общее
Полное имя : C:\otkat\Видео\Александр Невская битва\Alexandr.Nevskaja.Bitva.2008.HDRip.by.Der_Gott.avi
Формат : AVI
Формат/Информация : Audio Video Interleave
Размер файла : 743 Мбайт
Продолжительность : 1 ч. 55 м.
Общий поток : 899 Кбит/сек
Программа кодирования : VirtualDubModRus 1.5.10.2 (build 2542/release)
Библиотека кодирования : VirtualDubMod build 2542/release
Видео
Идентификатор : 0
Формат : MPEG-4 Visual
Профиль формата : Advanced Simple@L5
Параметр BVOP формата : 2
Параметр QPel формата : Нет
Параметр GMC формата : Без точки перехода
Параметр матрицы формата : Default (H.263)
Идентификатор кодека : XVID
Идентификатор кодека/Подсказка : XviD
Продолжительность : 1 ч. 55 м.
Битрейт : 762 Кбит/сек
Ширина : 720 пикселей
Высота : 304 пикселя
Соотношение сторон : 2,35:1
Частота кадров : 23,976 (23976/1000) кадра/сек
Цветовое пространство : YUV
Субдискретизация насыщенности : 4:2:0
Битовая глубина : 8 бит
Тип развёртки : Прогрессивная
Метод сжатия : С потерями
Бит/(Пиксели*Кадры) : 0.145
Размер потока : 629 Мбайт (85%)
Библиотека кодирования : XviD 1.2.1 (UTC 2008-12-04)
Аудио
Идентификатор : 1
Формат : MPEG Audio
Версия формата : Version 1
Профиль формата : Layer 3
Идентификатор кодека : 55
Идентификатор кодека/Подсказка : MP3
Продолжительность : 1 ч. 55 м.
Вид битрейта : Постоянный
Битрейт : 128 Кбит/сек
Каналы : 2 канала
Частота : 48,0 КГц
Метод сжатия : С потерями
Размер потока : 106 Мбайт (14%)
Выравнивание : Соединение по промежуткам
Продолжительность промежутка : 42 мс. (1,00 видеокадр)
Время предзагрузки промежутка : 504 мс.
Библиотека кодирования : LAME3.98r
Настройки программы : -m s -V 4 -q 0 -lowpass 17 -b 128

Скриншоты


[cybertorrent.ru].t138.torrent 
Торрент: Зарегистрирован [ 2018-02-15 13:57 ] · B8C05762240B7355104CDA669C250B1F9E723CCB

Скачать .torrent

Скачать

15 KB

Статус: проверено
Скачан: 0 раз
Размер: 743 MB
Профиль [ЛС]
Показать сообщения:    

Текущее время: 28-Май 03:14

Часовой пояс: UTC ± 0



Вы не можете начинать темы
Вы не можете отвечать на сообщения
Вы не можете редактировать свои сообщения
Вы не можете удалять свои сообщения
Вы не можете голосовать в опросах
Вы не можете прикреплять файлы к сообщениям
Вы можете скачивать файлы