Статистика раздачи
Размер:  1,85 GB   |    Зарегистрирован:  7 месяцев 1 день   |    Скачан:  0 раз

Полного источника не было: Никогда

   
 

Гость ®

Пол:
Не указан

Василиса Прекрасная [Новая редакция]- Страна: СССР
Студия: Союздетфильм
Жанр: сказка
Год выпуска: 1939 / 1966
Продолжительность: 01:08:07-Режиссер: Александр Роу
В ролях: Георгий Милляр, Сергей Столяров, Лев Потёмкин, Никита Кондратьев, Валентина Сорогожская, Ирина Зарубина, Лидия Сухаревская, Татьяна Барышева, М. Скавронская, Мария Барабанова-Описание: ...В некотором царстве-государстве жил да был старик. И было у него три сына - Антон, Агафон и младший Иванушка. В меру своих сил и умения заботился он о великовозрастных "дитятях". Да ведь годы уже не те. А тут, к его радости, пришла пора сыновьям невест искать...-Доп. информация: В данной раздаче представлена "Новая редакция" фильма, сделанная на Киностудии им. М. Горького в 1966г. Данная версия отличается иным монтажом, полной переозвучкой фильма и новыми титрами.
Оцифровка VHS Госкино СССР - xfiles.- | Релиз: -Семпл: http://sendfile.su/1446853-Тип релиза: VHSRip-AVC
Контейнер: MKV
Видео: 688x564 (4:3) @ 734x564, 25.000 fps, AVC, ~3614 kbps, 0.373 bits/pixel
Аудио : Русский, 48.0 KHz, AC3, 1 ch, 192 kbps

MediaInfo

General
Unique ID : 326314875710043934250037183303658530083 (0xF57DF583D5D73BAA74E60282748C6523)
Complete name : Василиса Прекрасная 1939 [Новая редакция 1966] VHSRip RUTRACKER.mkv
Format : Matroska
Format version : Version 4
File size : 1.85 GiB
Duration : 1 h 8 min
Overall bit rate : 3 883 kb/s
Movie name : Василиса Прекрасная 1939 [Новая редакция 1966] VHSRip RUTRACKER
Encoded date : UTC 2018-10-07 08:01:39
Writing application : mkvmerge v27.0.0 ('Metropolis') 64-bit
Writing library : libebml v1.3.6 + libmatroska v1.4.9
Cover : Yes
Attachments : Cover.jpg / VHS_top.jpg / VHS_side.jpg / VHS_left_side.jpg
Video
ID : 1
Format : AVC
Format/Info : Advanced Video Codec
Format profile : High@L4.1
Format settings : CABAC / 16 Ref Frames
Format settings, CABAC : Yes
Format settings, RefFrames : 16 frames
Codec ID : V_MPEG4/ISO/AVC
Duration : 1 h 8 min
Bit rate : 3 677 kb/s
Width : 688 pixels
Height : 564 pixels
Display aspect ratio : 4:3
Frame rate mode : Constant
Frame rate : 25.000 FPS
Color space : YUV
Chroma subsampling : 4:2:0
Bit depth : 8 bits
Scan type : Progressive
Bits/(Pixel*Frame) : 0.379
Stream size : 1.75 GiB (95%)
Writing library : x264 core 152 r2851kMod ba24899
Encoding settings : cabac=1 / ref=16 / deblock=1:-3:-3 / analyse=0x3:0x133 / me=umh / subme=11 / psy=1 / fade_compensate=0.00 / psy_rd=1.00:0.00 / mixed_ref=1 / me_range=48 / chroma_me=1 / trellis=2 / 8x8dct=1 / cqm=0 / deadzone=21,11 / fast_pskip=0 / chroma_qp_offset=-2 / threads=12 / lookahead_threads=3 / sliced_threads=0 / nr=0 / decimate=1 / interlaced=0 / bluray_compat=0 / constrained_intra=0 / bframes=14 / b_pyramid=2 / b_adapt=2 / b_bias=0 / direct=3 / weightb=1 / open_gop=0 / weightp=0 / keyint=250 / keyint_min=25 / scenecut=40 / intra_refresh=0 / rc_lookahead=70 / rc=crf / mbtree=0 / crf=17.0000 / qcomp=0.60 / qpmin=0 / qpmax=69 / qpstep=4 / vbv_maxrate=50000 / vbv_bufsize=62500 / crf_max=0.0 / nal_hrd=none / filler=0 / ip_ratio=1.40 / pb_ratio=1.30 / aq=3:0.75
Default : Yes
Forced : No
Color range : Limited
Color primaries : BT.601 PAL
Transfer characteristics : BT.470 System B/G
Matrix coefficients : BT.470 System B/G
Audio
ID : 2
Format : AC-3
Format/Info : Audio Coding 3
Commercial name : Dolby Digital
Codec ID : A_AC3
Duration : 1 h 8 min
Bit rate mode : Constant
Bit rate : 192 kb/s
Channel(s) : 1 channel
Channel layout : C
Sampling rate : 48.0 kHz
Frame rate : 31.250 FPS (1536 SPF)
Bit depth : 16 bits
Compression mode : Lossy
Stream size : 93.6 MiB (5%)
Service kind : Complete Main
Default : Yes
Forced : No

Сканы кассеты Госкино СССР

[cybertorrent.ru].t138.torrent 
Торрент: Зарегистрирован [ 2019-03-18 10:04 ] · 6DD320FDAA5825681DD8FD8C008A16B407DEFF4E

Скачать .torrent

Скачать

19 KB

Статус: проверено
Скачан: 0 раз
Размер: 1,85 GB
terms.php
Показать сообщения:    

Текущее время: 20-Окт 00:22

Часовой пояс: UTC ± 0



Вы не можете начинать темы
Вы не можете отвечать на сообщения
Вы не можете редактировать свои сообщения
Вы не можете удалять свои сообщения
Вы не можете голосовать в опросах
Вы не можете прикреплять файлы к сообщениям
Вы можете скачивать файлы