BitTorrent клиенты



Надежда Бабкина Концерт 2017.05.01 [2017, Pop, Folk, HDTV, 1080i]

Ответить на тему
Статистика раздачи
Размер:  4,9 GB   |    Зарегистрирован:  11 месяцев   |    Скачан:  0 раз

Полного источника не было: Никогда

 
   
 
 
Автор Сообщение

Cyber ®

Пол: Не указан

Стаж: 1 год

Сообщений: 512

Создавать темы 23-Фев-2018 03:22

[Цитировать]

Надежда Бабкина Концерт 2017.05.01
Жанр: Pop, Folk
Продолжительность: 00:50:41
Год выпуска: 2017
Описание: Надежда Бабкина и ансамбль "Русская песня" в своем творчестве не отстают от современных веяний и активно используют в своих концертах передовые технологии и модные тенденции. "Не стоять на месте, идти в ногу со временем" - их фирменный стиль. Для работы над программой "Золотые хиты "Русской песни" был приглашен один из самых востребованных сегодня режиссеров в шоу-индустрии и кинематографе - клипмейкер Алексей Голубев. Вместе с художником Алексеем Усановым он помог зрителям почувствовать целостность и красоту русской традиционной культуры, ее связь с нами, современниками XXI века.
Алексей Голубев: "Народные песни веками передавались из поколения в поколение, и сегодня мы должны сохранить эту нить. Как стремительно и кардинально не менялся бы мир, неизменным остается то, что для всех людей по-настоящему ценно. Мы поддержим эту связь и при помощи народной музыки поговорим о том, что формирует наше мировоззрение, о тех исконных истинах, которые делают нас такими, какие мы есть".
В концерте прозвучат самые популярные песни из репертуара ансамбля "Русская песня", большинство из которых привезены из многочисленных экспедиций по регионам России. Во всей своей красе предстает наша многонациональная страна с ее музыкальным богатством и многообразием напевов, наигрышей, традиций. Уникальность каждого из номеров заключается в тонком переплетении действия, происходящего на сцене, неожиданных "живых" декораций и видео, которые будут продемонстрированы на огромном фоновом экране. История и бытование каждой исполняемой песни предстает перед глазами зрителей. Перемещаясь во времени, путешествуя по России, авторы собирают калейдоскоп из сюжетов, которые составляют основу русской музыкальной культуры.
В концерте примут участие: Надежда Бабкина и ансамбль "Русская песня", шоу-балет "Живая планета", фольклорная группа "Славяне", Театр танца Аллы Духовой "Todes".
01. Гляжу в озера синие
02. Ой, на горке калина...
03. Молодка
04. Гуляю, гуляю
05. На тот большак, на перекрёсток
06. То не ветер ветку клонит
07. Заболела Дунина головка
08. Ой цветет калина в поле у ручья
09. Зорька алая
10. Четыре двора... Барыня барыня барыня сударыня
11. Пчёлочка златая
12. Славное море — священный Байкал
13. Славься, славься, ты Русь моя
Качество: HDTV
Разрешение видео/развертка: 1080i
Контейнер: TS
Видео кодек: H.264
Аудио кодек: AC3
Видео: H264; 1920x1080 (16:9); 25.000 fps; ~ 12.5 Mb/s
Аудио 1: AC3, 6 channels, 48000Hz, 384 Кбит/сек
Аудио 2: MPEG Audio 48000Hz stereo 192 Кбит/сек

Отчёт MediaInfo / BDInfo

General
ID : 1 (0x1)
Complete name : J:\Надежда Бабкина Концерт 2017.05.01.ts
Format : MPEG-TS
File size : 4.90 GiB
Duration : 50 min 45 s
Overall bit rate mode : Variable
Overall bit rate : 13.8 Mb/s
Video
ID : 205 (0xCD)
Menu ID : 20105 (0x4E89)
Format : AVC
Format/Info : Advanced Video Codec
Format profile : High@L4
Format settings, CABAC : Yes
Format settings, ReFrames : 4 frames
Format settings, GOP : M=4, N=28
Codec ID : 27
Duration : 50 min 44 s
Bit rate : 12.5 Mb/s
Width : 1 920 pixels
Height : 1 080 pixels
Display aspect ratio : 16:9
Frame rate : 25.000 FPS
Standard : Component
Color space : YUV
Chroma subsampling : 4:2:0
Bit depth : 8 bits
Scan type : Interlaced
Scan type, store method : Separated fields
Scan order : Top Field First
Bits/(Pixel*Frame) : 0.242
Stream size : 4.45 GiB (91%)
Color range : Limited
Color primaries : BT.709
Transfer characteristics : BT.709
Matrix coefficients : BT.709
Audio #1
ID : 305 (0x131)
Menu ID : 20105 (0x4E89)
Format : AC-3
Format/Info : Audio Coding 3
Mode extension : CM (complete main)
Format settings, Endianness : Big
Codec ID : 6
Duration : 50 min 44 s
Bit rate mode : Constant
Bit rate : 384 kb/s
Channel(s) : 6 channels
Channel positions : Front: L C R, Side: L R, LFE
Sampling rate : 48.0 kHz
Frame rate : 31.250 FPS (1536 spf)
Bit depth : 16 bits
Compression mode : Lossy
Stream size : 139 MiB (3%)
Language : Russian
Audio #2
ID : 306 (0x132)
Menu ID : 20105 (0x4E89)
Format : MPEG Audio
Format version : Version 1
Format profile : Layer 2
Codec ID : 3
Duration : 50 min 44 s
Bit rate mode : Constant
Bit rate : 192 kb/s
Channel(s) : 2 channels
Sampling rate : 48.0 kHz
Compression mode : Lossy
Stream size : 69.7 MiB (1%)
Language : Russian

Скриншоты


[cybertorrent.ru].t13881.torrent 
Торрент: Зарегистрирован [ 2018-02-23 03:25 ] · 296A2A1762CF524C535039A9CAF385E34B65DDBF

Скачать .torrent

Скачать

25 KB

Статус: проверено
Скачан: 0 раз
Размер: 4,9 GB
terms.php
[Профиль] [ЛС]
Показать сообщения:    
Ответить на тему

Текущее время: 22-Фев 02:46

Часовой пояс: UTC + 3



Вы не можете начинать темы
Вы не можете отвечать на сообщения
Вы не можете редактировать свои сообщения
Вы не можете удалять свои сообщения
Вы не можете голосовать в опросах
Вы не можете прикреплять файлы к сообщениям
Вы можете скачивать файлы