Статистика раздачи
Размер:  2,19 GB   |    Зарегистрирован:  3 месяца 9 дней   |    Скачан:  0 раз

Полного источника не было: Никогда

 
   
 
 

lopster ®

Пол:
Не указан
Стаж:
3 месяца 9 дней
Сообщений:
612

Метро / Open Matte
-Blu-Ray-1080i | HDTVRip-AVC | HDTVRip | Audio-Жанр: фильм-катастрофа, драма, триллер
Год выпуска: 2012
Продолжительность: 02:06:21
Режиссёр: Антон Мегердичев
В ролях: Сергей Пускепалис, Анатолий Белый, Анфиса Вистингаузен, Алексей Бардуков, Екатерина Шпица, Елена Панова, Станислав Дужников, Светлана Ходченкова, Сергей Сосновский, Ярослав Жалнин
Описание: Широко развернувшееся в центре Москвы строительство новых зданий приводит к тому, что в одном из тоннелей метро между двумя станциями возникает трещина. Никто себе и представить не мог, что в результате нарушения герметичности перекрытия в тоннель хлынет вода из Москва-реки, и сотни пассажиров поезда окажутся во власти надвигающегося потопа. Бешеный поток воды грозит не только обрушением тоннелей метро, но и разрушением всего города.
Среди попавших в беду людей — врач городской больницы Андрей Гарин и его дочь Ксюша. Гарин сражается с катастрофой, пытаясь спасти оставшихся в живых пассажиров, в том числе и …любовника своей жены. Гарину придется побороть обиду, гнев и страх. Он должен выжить, чтобы вернуть свою любовь, семью… свою прежнюю счастливую жизнь.
Доп. информация: Звук взят с лицензии
Различия BD и HDTV - разное наполнение кадра - 16:9 (1.78:1) -> http://screenshotcomparison.com/comparison/215278
Фильмы в Fullscreen (4:3) и Open Matte (16:9) форматах
Сэмпл: http://sendfile.su/1348020
Качество видео: HDTVRip-AVC Исходник
Формат видео: MKV
Видео: MPEG-4 AVC/H.264 / 2100 kbps / 1024x560 / 25.000 fps
Аудио: AC3 / 6 ch / 384 kbps / 48 kHz

MediaInfo

General
Unique ID : 211650358664649338097331823694490615306 (0x9F3A60586CBCA5E2B8E3A4C7234FBE0A)
Complete name : J:\Torrents\Готовые релизы\Метро (2013) HDTVRip-AVC [Open Matte].mkv
Format : Matroska
Format version : Version 2
File size : 2.19 GiB
Duration : 2 h 6 min
Overall bit rate : 2 485 kb/s
Movie name : Метро (2013) [Open Matte]
Encoded date : UTC 2017-12-13 23:06:08
Writing application : mkvmerge v5.5.0 ('Healer') built on Apr 24 2012 23:47:03
Writing library : libebml v1.2.3 + libmatroska v1.3.0
Video
ID : 1
Format : AVC
Format/Info : Advanced Video Codec
Format profile : High@L3.1
Format settings : CABAC / 8 Ref Frames
Format settings, CABAC : Yes
Format settings, ReFrames : 8 frames
Codec ID : V_MPEG4/ISO/AVC
Duration : 2 h 6 min
Bit rate : 2 100 kb/s
Width : 1 024 pixels
Height : 560 pixels
Display aspect ratio : 1.85:1
Frame rate mode : Constant
Frame rate : 25.000 FPS
Color space : YUV
Chroma subsampling : 4:2:0
Bit depth : 8 bits
Scan type : Progressive
Bits/(Pixel*Frame) : 0.146
Stream size : 1.81 GiB (83%)
Title : HDTVRip (AVC) / MPEG-4 AVC/H.264 / 2100 kbps / 1024x560 / 25.000 fps
Writing library : x264 core 146 r2538 121396c
Encoding settings : cabac=1 / ref=8 / deblock=1:0:0 / analyse=0x3:0x113 / me=umh / subme=10 / psy=1 / psy_rd=1.00:0.00 / mixed_ref=1 / me_range=32 / chroma_me=1 / trellis=2 / 8x8dct=1 / cqm=0 / deadzone=21,11 / fast_pskip=0 / chroma_qp_offset=-2 / threads=6 / lookahead_threads=1 / sliced_threads=0 / nr=0 / decimate=1 / interlaced=0 / bluray_compat=0 / constrained_intra=0 / bframes=9 / b_pyramid=2 / b_adapt=2 / b_bias=0 / direct=3 / weightb=1 / open_gop=0 / weightp=2 / keyint=250 / keyint_min=25 / scenecut=40 / intra_refresh=0 / rc_lookahead=50 / rc=2pass / mbtree=1 / bitrate=2100 / ratetol=1.0 / qcomp=0.60 / qpmin=0 / qpmax=69 / qpstep=4 / cplxblur=20.0 / qblur=0.5 / vbv_maxrate=14000 / vbv_bufsize=14000 / nal_hrd=none / filler=0 / ip_ratio=1.40 / aq=1:1.00
Language : Russian
Default : Yes
Forced : Yes
Audio
ID : 2
Format : AC-3
Format/Info : Audio Coding 3
Codec ID : A_AC3
Duration : 2 h 6 min
Bit rate mode : Constant
Bit rate : 384 kb/s
Channel(s) : 6 channels
Channel positions : Front: L C R, Side: L R, LFE
Sampling rate : 48.0 kHz
Frame rate : 31.250 FPS (1536 SPF)
Bit depth : 16 bits
Compression mode : Lossy
Stream size : 347 MiB (15%)
Title : Original (Rus) / AC3 / 6 ch / 384 kbps / 48 kHz
Language : Russian
Service kind : Complete Main
Default : Yes
Forced : Yes

Скриншот c названием фильма

Скриншоты

-

Обновление 14 декабря 2017

Устранён рассинхрон со звуком во второй половине фильма
[cybertorrent.ru].t140.torrent 
Торрент: Зарегистрирован [ 2018-02-15 13:57 ] · 418C97F1AA30DCAD86B578B7643C2D1098F084B9

Скачать .torrent

Скачать

11 KB

Статус: проверено
Скачан: 0 раз
Размер: 2,19 GB
Профиль [ЛС]
Показать сообщения:    

Текущее время: 25-Май 09:03

Часовой пояс: UTC ± 0



Вы не можете начинать темы
Вы не можете отвечать на сообщения
Вы не можете редактировать свои сообщения
Вы не можете удалять свои сообщения
Вы не можете голосовать в опросах
Вы не можете прикреплять файлы к сообщениям
Вы можете скачивать файлы