BitTorrent клиенты



Alison Krauss and Union Station - Live on Soundstage. 2003 [2017, Bluegrass, Country, Folk, HDTV=>DVD5]

Ответить на тему
Статистика раздачи
Размер:  3,6 GB   |    Зарегистрирован:  11 месяцев   |    Скачан:  0 раз

Полного источника не было: Никогда

 
   
 
 
Автор Сообщение

Серёга ®

Пол: Не указан

Стаж: 1 год

Сообщений: 292

Создавать темы 23-Фев-2018 03:19

[Цитировать]

Alison Krauss and Union Station - Live on Soundstage. 2003
Страна: USA
Жанр: Bluegrass, Country, Folk
Продолжительность: 00:54:25
Год выпуска: 2017
Описание: Premiered July 2, 2003. Rounder recording artists Alison Krauss & Union Station are a remarkable collaboration of five stellar musicians, who together have been instrumental in bringing bluegrass music to its now widely accepted and popular commercial status. They come together on Soundstage to perform a selection of songs outlining their storied careers.
Треклист:
  • Let Me Touch You For A While
  • The Lucky One
  • Baby Now That I’ve Found You
  • Bright Sunny South
  • Everytime You Say Goodbye
  • Stay
  • Forget About It
  • I Am A Man Of Constant Sorrow
  • Maybe
  • We Hide And Seek
  • When You Say Nothing At All
  • Oh Atlanta
  • Down To The River To Pray
  • There Is A Reason
    Доп. информация: Исходник HDTV.
    Большое спасибо CHKA1961 за исходник, кодировку видео и аудио и помощь по созданию данного релиза.
    Меню анимированное, собственного производства.
    Полученный результат проверен на работоспособность на софтовом Media Player Classic Home Cinema, записан на болванку с помощью ImgBurn и вновь проверен уже на бытовом плеере.--

    Программы, использованные при создании этого релиза

    Демуксинг
    tsMuxer
    Обработка видео
    DGDecodeNV
    AviSynth
    CCE-SP2
    Обработка аудио
    Обработке не подвергалось
    Создание меню, Авторинг и проверка
    MPEG Video Wizard DVD
    Muxman
    DvdReMakePro

    Скрипт

    LoadPlugin("C:\folders\dgdecnv2041\DGDecodeNV.dll")
    DGSource("G:\Alison Krauss\Alison Krauss and Union Station.dgi")
    LoadPlugin("C:\Program Files (x86)\AviSynth 2.5\plugins\TDeint.dll")
    TDeint(mode=1)
    Lanczos4Resize(720,480)
    AssumeTFF()
    SeparateFields()
    SelectEvery(4,0,3)
    Weave()
    LoadPlugin("C:\Program Files (x86)\AviSynth 2.5\plugins\AutoYUY2.dll")
    AutoYUY2()
    LoadPlugin("C:\Program Files (x86)\AviSynth 2.5\plugins\ColorMatrix.dll")
    ColorMatrix(mode="Rec.709->Rec.601", inputFR=false, clamp=0)
    [box=#A4B1ED,#CCD4FA]Скачать сэмпл[/box]--Разбивка на главы по трекам: есть
    Качество : HDTV=>DVD5
    Формат: DVD video
    Видео кодек: MPEG2
    Аудио кодек: AC3
    Видео: NTSC 16:9 (720x480) VBR Auto Letterboxed, ~ 8509 Kbps, 29.970 fps
    Аудио: English (Dolby AC3, 6 ch), 384 Kbps, 48.0 KHz

    DVDinfo+MI

    Title: Alison Krauss and Union Station - Live on Soundstage. 2003
    Size: 3.60 Gb ( 3 771 194,00 KBytes ) - DVD-5
    Enabled regions: 1, 2, 3, 4, 5, 6, 7, 8
    VTS_01 :
    Play Length: 00:54:25
    Video: NTSC 16:9 (720x480) VBR, Auto Letterboxed
    Audio:
    English (Dolby AC3, 6 ch)
    VTS_02 :
    Play Length: 00:00:07
    Video: NTSC 16:9 (720x480) VBR, Auto Letterboxed
    Audio:
    English (Dolby AC3, 2 ch)
    * Menus Information *
    VIDEO_TS Menu
    Video:
    NTSC 4:3 (720x480) VBR
    Auto Pan&Scan, Auto Letterboxed
    Language Unit :
    VTS_01 Menu
    Video:
    NTSC 16:9 (720x480) VBR
    Auto Letterboxed
    Audio:
    English (Dolby AC3, 2 ch)
    Language Unit :
    Root Menu
    Chapter (PTT) Menu
    VTS_02 Menu
    Video:
    NTSC 4:3 (720x480) VBR
    Auto Pan&Scan, Auto Letterboxed
    Language Unit :
    Root Menu-General
    Complete name : N:\Music Video\DVD\Alison Krauss and Union Station - Live on Soundstage. 2003\VIDEO_TS\VIDEO_TS.BUP
    Format : DVD Video
    Format profile : Menu
    File size : 10.0 KiB
    Overall bit rate mode : Variable
    FileExtension_Invalid : ifo
    Video
    ID : 224 (0xE0)
    Format : MPEG Video
    Format version : Version 1
    Bit rate mode : Variable
    Width : 720 pixels
    Height : 480 pixels
    Display aspect ratio : 4:3
    Frame rate : 29.970 (29970/1000) FPS
    Standard : NTSC
    Compression mode : Lossy
    General
    Complete name : N:\Music Video\DVD\Alison Krauss and Union Station - Live on Soundstage. 2003\VIDEO_TS\VIDEO_TS.IFO
    Format : DVD Video
    Format profile : Menu
    File size : 10.0 KiB
    Overall bit rate mode : Variable
    Video
    ID : 224 (0xE0)
    Format : MPEG Video
    Format version : Version 1
    Bit rate mode : Variable
    Width : 720 pixels
    Height : 480 pixels
    Display aspect ratio : 4:3
    Frame rate : 29.970 (29970/1000) FPS
    Standard : NTSC
    Compression mode : Lossy
    General
    Complete name : N:\Music Video\DVD\Alison Krauss and Union Station - Live on Soundstage. 2003\VIDEO_TS\VTS_01_0.BUP
    Format : DVD Video
    Format profile : Program
    File size : 50.0 KiB
    Duration : 54 min 25 s
    Overall bit rate mode : Variable
    Overall bit rate : 125 b/s
    FileExtension_Invalid : ifo
    Video
    ID : 224 (0xE0)
    Format : MPEG Video
    Format version : Version 2
    Duration : 54 min 25 s
    Bit rate mode : Variable
    Width : 720 pixels
    Height : 480 pixels
    Display aspect ratio : 16:9
    Frame rate : 29.970 (29970/1000) FPS
    Standard : NTSC
    Compression mode : Lossy
    Audio
    ID : 128 (0x80)
    Format : AC-3
    Format/Info : Audio Coding 3
    Duration : 54 min 25 s
    Channel(s) : 6 channels
    Sampling rate : 48.0 kHz
    Compression mode : Lossy
    Language : English
    Menu
    Duration : 54 min 25 s
    00:00:00.000 : Chapter 1
    00:00:33.833 : Chapter 2
    00:04:00.699 : Chapter 3
    00:07:09.265 : Chapter 4
    00:11:45.731 : Chapter 5
    00:14:43.464 : Chapter 6
    00:17:45.897 : Chapter 7
    00:21:01.063 : Chapter 8
    00:24:15.496 : Chapter 9
    00:28:08.296 : Chapter 10
    00:32:51.762 : Chapter 11
    00:38:32.295 : Chapter 12
    00:42:25.295 : Chapter 13
    00:47:58.795 : Chapter 14
    00:50:31.028 : Chapter 15
    List (Audio) : 0
    General
    Complete name : N:\Music Video\DVD\Alison Krauss and Union Station - Live on Soundstage. 2003\VIDEO_TS\VTS_01_0.IFO
    Format : DVD Video
    Format profile : Program
    File size : 50.0 KiB
    Duration : 54 min 25 s
    Overall bit rate mode : Variable
    Overall bit rate : 125 b/s
    Video
    ID : 224 (0xE0)
    Format : MPEG Video
    Format version : Version 2
    Duration : 54 min 25 s
    Bit rate mode : Variable
    Width : 720 pixels
    Height : 480 pixels
    Display aspect ratio : 16:9
    Frame rate : 29.970 (29970/1000) FPS
    Standard : NTSC
    Compression mode : Lossy
    Audio
    ID : 128 (0x80)
    Format : AC-3
    Format/Info : Audio Coding 3
    Duration : 54 min 25 s
    Channel(s) : 6 channels
    Sampling rate : 48.0 kHz
    Compression mode : Lossy
    Language : English
    Menu
    Duration : 54 min 25 s
    00:00:00.000 : Chapter 1
    00:00:33.833 : Chapter 2
    00:04:00.699 : Chapter 3
    00:07:09.265 : Chapter 4
    00:11:45.731 : Chapter 5
    00:14:43.464 : Chapter 6
    00:17:45.897 : Chapter 7
    00:21:01.063 : Chapter 8
    00:24:15.496 : Chapter 9
    00:28:08.296 : Chapter 10
    00:32:51.762 : Chapter 11
    00:38:32.295 : Chapter 12
    00:42:25.295 : Chapter 13
    00:47:58.795 : Chapter 14
    00:50:31.028 : Chapter 15
    List (Audio) : 0
    General
    Complete name : N:\Music Video\DVD\Alison Krauss and Union Station - Live on Soundstage. 2003\VIDEO_TS\VTS_01_0.VOB
    Format : MPEG-PS
    File size : 152 MiB
    Duration : 53 s 120 ms
    Overall bit rate mode : Variable
    Overall bit rate : 24.0 Mb/s
    Writing library : (c) 1998-2009 Womble Multimedia, Inc. / MPEG Video Wizard (03/2009) / Jun 24 2009
    Video
    ID : 224 (0xE0)
    Format : MPEG Video
    Format version : Version 2
    Format profile : Main@Main
    Format settings, BVOP : Yes
    Format settings, Matrix : Default
    Format settings, GOP : M=3, N=15
    Duration : 53 s 120 ms
    Bit rate mode : Variable
    Bit rate : 23.3 Mb/s
    Maximum bit rate : 8 500 kb/s
    Width : 720 pixels
    Height : 480 pixels
    Display aspect ratio : 16:9
    Frame rate : 29.970 (30000/1001) FPS
    Standard : NTSC
    Color space : YUV
    Chroma subsampling : 4:2:0
    Bit depth : 8 bits
    Scan type : Progressive
    Compression mode : Lossy
    Bits/(Pixel*Frame) : 2.251
    Time code of first frame : 00:00:00:00
    Time code source : Group of pictures header
    GOP, Open/Closed : Open
    GOP, Open/Closed of first frame : Closed
    Stream size : 148 MiB (97%)
    Writing library : (c) 1998-2009 Womble Multimedia, Inc. / MPEG Video Wizard (03/2009) / Jun 24 2009
    Audio
    ID : 189 (0xBD)-128 (0x80)
    Format : AC-3
    Format/Info : Audio Coding 3
    Format settings, Endianness : Big
    Muxing mode : DVD-Video
    Duration : 53 s 120 ms
    Bit rate mode : Constant
    Bit rate : 192 kb/s
    Channel(s) : 2 channels
    Channel positions : Front: L R
    Sampling rate : 48.0 kHz
    Frame rate : 31.250 FPS (1536 SPF)
    Bit depth : 16 bits
    Compression mode : Lossy
    Stream size : 1.22 MiB (1%)
    Service kind : Complete Main
    Text #1
    ID : 189 (0xBD)-32 (0x20)
    Format : RLE
    Format/Info : Run-length encoding
    Muxing mode : DVD-Video
    Text #2
    ID : 189 (0xBD)-33 (0x21)
    Format : RLE
    Format/Info : Run-length encoding
    Muxing mode : DVD-Video
    Menu
    General
    Complete name : N:\Music Video\DVD\Alison Krauss and Union Station - Live on Soundstage. 2003\VIDEO_TS\VTS_01_1.VOB
    Format : MPEG-PS
    File size : 1 024 MiB
    Duration : 15 min 48 s
    Overall bit rate mode : Variable
    Overall bit rate : 9 054 kb/s
    Video
    ID : 224 (0xE0)
    Format : MPEG Video
    Format version : Version 2
    Format profile : Main@Main
    Format settings, BVOP : Yes
    Format settings, Matrix : Custom
    Format settings, GOP : M=3, N=15
    Format settings, picture structure : Frame
    Duration : 15 min 48 s
    Bit rate mode : Variable
    Bit rate : 8 490 kb/s
    Maximum bit rate : 9 800 kb/s
    Width : 720 pixels
    Height : 480 pixels
    Display aspect ratio : 16:9
    Frame rate : 29.970 (30000/1001) FPS
    Standard : NTSC
    Color space : YUV
    Chroma subsampling : 4:2:0
    Bit depth : 8 bits
    Scan type : Interlaced
    Scan order : Top Field First
    Compression mode : Lossy
    Bits/(Pixel*Frame) : 0.820
    Time code of first frame : 01:00:00:00
    Time code source : Group of pictures header
    GOP, Open/Closed : Open
    GOP, Open/Closed of first frame : Closed
    Stream size : 960 MiB (94%)
    Audio
    ID : 189 (0xBD)-128 (0x80)
    Format : AC-3
    Format/Info : Audio Coding 3
    Format settings, Endianness : Big
    Muxing mode : DVD-Video
    Duration : 15 min 48 s
    Bit rate mode : Constant
    Bit rate : 384 kb/s
    Channel(s) : 6 channels
    Channel positions : Front: L C R, Side: L R, LFE
    Sampling rate : 48.0 kHz
    Frame rate : 31.250 FPS (1536 SPF)
    Bit depth : 16 bits
    Compression mode : Lossy
    Stream size : 43.4 MiB (4%)
    Service kind : Complete Main
    Menu
    General
    Complete name : N:\Music Video\DVD\Alison Krauss and Union Station - Live on Soundstage. 2003\VIDEO_TS\VTS_01_2.VOB
    Format : MPEG-PS
    File size : 1 024 MiB
    Duration : 15 min 44 s
    Overall bit rate mode : Variable
    Overall bit rate : 9 093 kb/s
    Video
    ID : 224 (0xE0)
    Format : MPEG Video
    Format version : Version 2
    Format profile : Main@Main
    Format settings, BVOP : Yes
    Format settings, Matrix : Custom
    Format settings, GOP : Variable
    Format settings, picture structure : Frame
    Duration : 15 min 44 s
    Bit rate mode : Variable
    Bit rate : 8 528 kb/s
    Maximum bit rate : 9 800 kb/s
    Width : 720 pixels
    Height : 480 pixels
    Display aspect ratio : 16:9
    Frame rate : 29.970 (30000/1001) FPS
    Standard : NTSC
    Color space : YUV
    Chroma subsampling : 4:2:0
    Bit depth : 8 bits
    Scan type : Interlaced
    Scan order : Top Field First
    Compression mode : Lossy
    Bits/(Pixel*Frame) : 0.823
    Time code of first frame : 01:15:48:03
    Time code source : Group of pictures header
    GOP, Open/Closed : Open
    Stream size : 960 MiB (94%)
    Audio
    ID : 189 (0xBD)-128 (0x80)
    Format : AC-3
    Format/Info : Audio Coding 3
    Format settings, Endianness : Big
    Muxing mode : DVD-Video
    Duration : 15 min 44 s
    Bit rate mode : Constant
    Bit rate : 384 kb/s
    Channel(s) : 6 channels
    Channel positions : Front: L C R, Side: L R, LFE
    Sampling rate : 48.0 kHz
    Frame rate : 31.250 FPS (1536 SPF)
    Bit depth : 16 bits
    Compression mode : Lossy
    Delay relative to video : -538 ms
    Stream size : 43.2 MiB (4%)
    Service kind : Complete Main
    Menu
    General
    Complete name : N:\Music Video\DVD\Alison Krauss and Union Station - Live on Soundstage. 2003\VIDEO_TS\VTS_01_3.VOB
    Format : MPEG-PS
    File size : 1 024 MiB
    Duration : 15 min 45 s
    Overall bit rate mode : Variable
    Overall bit rate : 9 088 kb/s
    Video
    ID : 224 (0xE0)
    Format : MPEG Video
    Format version : Version 2
    Format profile : Main@Main
    Format settings, BVOP : Yes
    Format settings, Matrix : Custom
    Format settings, GOP : Variable
    Format settings, picture structure : Frame
    Duration : 15 min 45 s
    Bit rate mode : Variable
    Bit rate : 8 524 kb/s
    Maximum bit rate : 9 800 kb/s
    Width : 720 pixels
    Height : 480 pixels
    Display aspect ratio : 16:9
    Frame rate : 29.970 (30000/1001) FPS
    Standard : NTSC
    Color space : YUV
    Chroma subsampling : 4:2:0
    Bit depth : 8 bits
    Scan type : Interlaced
    Scan order : Top Field First
    Compression mode : Lossy
    Bits/(Pixel*Frame) : 0.823
    Time code of first frame : 01:31:31:18
    Time code source : Group of pictures header
    GOP, Open/Closed : Open
    Stream size : 960 MiB (94%)
    Audio
    ID : 189 (0xBD)-128 (0x80)
    Format : AC-3
    Format/Info : Audio Coding 3
    Format settings, Endianness : Big
    Muxing mode : DVD-Video
    Duration : 15 min 45 s
    Bit rate mode : Constant
    Bit rate : 384 kb/s
    Channel(s) : 6 channels
    Channel positions : Front: L C R, Side: L R, LFE
    Sampling rate : 48.0 kHz
    Frame rate : 31.250 FPS (1536 SPF)
    Bit depth : 16 bits
    Compression mode : Lossy
    Delay relative to video : -278 ms
    Stream size : 43.3 MiB (4%)
    Service kind : Complete Main
    Menu
    General
    Complete name : N:\Music Video\DVD\Alison Krauss and Union Station - Live on Soundstage. 2003\VIDEO_TS\VTS_01_4.VOB
    Format : MPEG-PS
    File size : 453 MiB
    Duration : 7 min 10 s
    Overall bit rate mode : Variable
    Overall bit rate : 8 823 kb/s
    Video
    ID : 224 (0xE0)
    Format : MPEG Video
    Format version : Version 2
    Format profile : Main@Main
    Format settings, BVOP : Yes
    Format settings, Matrix : Custom
    Format settings, GOP : Variable
    Format settings, picture structure : Frame
    Duration : 7 min 10 s
    Bit rate mode : Variable
    Bit rate : 8 263 kb/s
    Maximum bit rate : 9 800 kb/s
    Width : 720 pixels
    Height : 480 pixels
    Display aspect ratio : 16:9
    Frame rate : 29.970 (30000/1001) FPS
    Standard : NTSC
    Color space : YUV
    Chroma subsampling : 4:2:0
    Bit depth : 8 bits
    Scan type : Interlaced
    Scan order : Top Field First
    Compression mode : Lossy
    Bits/(Pixel*Frame) : 0.798
    Time code of first frame : 01:47:15:24
    Time code source : Group of pictures header
    GOP, Open/Closed : Open
    Stream size : 424 MiB (94%)
    Audio
    ID : 189 (0xBD)-128 (0x80)
    Format : AC-3
    Format/Info : Audio Coding 3
    Format settings, Endianness : Big
    Muxing mode : DVD-Video
    Duration : 7 min 10 s
    Bit rate mode : Constant
    Bit rate : 384 kb/s
    Channel(s) : 6 channels
    Channel positions : Front: L C R, Side: L R, LFE
    Sampling rate : 48.0 kHz
    Frame rate : 31.250 FPS (1536 SPF)
    Bit depth : 16 bits
    Compression mode : Lossy
    Delay relative to video : -238 ms
    Stream size : 19.7 MiB (4%)
    Service kind : Complete Main
    Menu
    General
    Complete name : N:\Music Video\DVD\Alison Krauss and Union Station - Live on Soundstage. 2003\VIDEO_TS\VTS_02_0.BUP
    Format : DVD Video
    Format profile : Program
    File size : 14.0 KiB
    Duration : 7 s 966 ms
    Overall bit rate mode : Variable
    Overall bit rate : 14.4 kb/s
    FileExtension_Invalid : ifo
    Video
    ID : 224 (0xE0)
    Format : MPEG Video
    Format version : Version 2
    Duration : 7 s 975 ms
    Bit rate mode : Variable
    Width : 720 pixels
    Height : 480 pixels
    Display aspect ratio : 16:9
    Frame rate : 29.970 (29970/1000) FPS
    Standard : NTSC
    Compression mode : Lossy
    Audio
    ID : 128 (0x80)
    Format : AC-3
    Format/Info : Audio Coding 3
    Duration : 7 s 966 ms
    Channel(s) : 2 channels
    Sampling rate : 48.0 kHz
    Compression mode : Lossy
    Language : English
    Menu
    Duration : 7 s 966 ms
    00:00:00.000 : Chapter 1
    List (Audio) : 0
    General
    Complete name : N:\Music Video\DVD\Alison Krauss and Union Station - Live on Soundstage. 2003\VIDEO_TS\VTS_02_0.IFO
    Format : DVD Video
    Format profile : Program
    File size : 14.0 KiB
    Duration : 7 s 966 ms
    Overall bit rate mode : Variable
    Overall bit rate : 14.4 kb/s
    Video
    ID : 224 (0xE0)
    Format : MPEG Video
    Format version : Version 2
    Duration : 7 s 975 ms
    Bit rate mode : Variable
    Width : 720 pixels
    Height : 480 pixels
    Display aspect ratio : 16:9
    Frame rate : 29.970 (29970/1000) FPS
    Standard : NTSC
    Compression mode : Lossy
    Audio
    ID : 128 (0x80)
    Format : AC-3
    Format/Info : Audio Coding 3
    Duration : 7 s 966 ms
    Channel(s) : 2 channels
    Sampling rate : 48.0 kHz
    Compression mode : Lossy
    Language : English
    Menu
    Duration : 7 s 966 ms
    00:00:00.000 : Chapter 1
    List (Audio) : 0
    General
    Complete name : N:\Music Video\DVD\Alison Krauss and Union Station - Live on Soundstage. 2003\VIDEO_TS\VTS_02_1.VOB
    Format : MPEG-PS
    File size : 6.06 MiB
    Duration : 8 s 8 ms
    Overall bit rate mode : Variable
    Overall bit rate : 6 351 kb/s
    Writing library : (c) 1998-2009 Womble Multimedia, Inc. / MPEG Video Wizard (03/2009) / Jun 24 2009
    Video
    ID : 224 (0xE0)
    Format : MPEG Video
    Format version : Version 2
    Format profile : Main@Main
    Format settings, BVOP : Yes
    Format settings, Matrix : Custom
    Format settings, GOP : M=3, N=15
    Format settings, picture structure : Frame
    Duration : 8 s 8 ms
    Bit rate mode : Variable
    Bit rate : 6 000 kb/s
    Maximum bit rate : 8 000 kb/s
    Width : 720 pixels
    Height : 480 pixels
    Display aspect ratio : 16:9
    Frame rate : 29.970 (30000/1001) FPS
    Standard : NTSC
    Color space : YUV
    Chroma subsampling : 4:2:0
    Bit depth : 8 bits
    Scan type : Interlaced
    Scan order : Top Field First
    Compression mode : Lossy
    Bits/(Pixel*Frame) : 0.579
    Time code of first frame : 00:00:00:00
    Time code source : Group of pictures header
    GOP, Open/Closed : Open
    GOP, Open/Closed of first frame : Closed
    Stream size : 5.73 MiB (94%)
    Writing library : (c) 1998-2009 Womble Multimedia, Inc. / MPEG Video Wizard (03/2009) / Jun 24 2009
    Audio
    ID : 189 (0xBD)-128 (0x80)
    Format : AC-3
    Format/Info : Audio Coding 3
    Format settings, Endianness : Big
    Muxing mode : DVD-Video
    Duration : 8 s 0 ms
    Bit rate mode : Constant
    Bit rate : 224 kb/s
    Channel(s) : 2 channels
    Channel positions : Front: L R
    Sampling rate : 48.0 kHz
    Frame rate : 31.250 FPS (1536 SPF)
    Bit depth : 16 bits
    Compression mode : Lossy
    Stream size : 219 KiB (4%)
    Service kind : Complete Main
    Menu

    Скриншоты меню

    Скриншоты


    Релиз:
    [cybertorrent.ru].t14047.torrent 
    Торрент: Зарегистрирован [ 2018-02-23 03:25 ] · 197101EB93F1C1F6F142957ABA1B8DB39C4E5CD5

    Скачать .torrent

    Скачать

    19 KB

    Статус: проверено
    Скачан: 0 раз
    Размер: 3,6 GB
    terms.php
  • [Профиль] [ЛС]
    Показать сообщения:    
    Ответить на тему

    Текущее время: 22-Фев 03:17

    Часовой пояс: UTC + 3



    Вы не можете начинать темы
    Вы не можете отвечать на сообщения
    Вы не можете редактировать свои сообщения
    Вы не можете удалять свои сообщения
    Вы не можете голосовать в опросах
    Вы не можете прикреплять файлы к сообщениям
    Вы можете скачивать файлы