Статистика раздачи
Размер:  1,45 GB   |    Зарегистрирован:  6 месяцев 25 дней   |    Скачан:  0 раз

Полного источника не было: Никогда

   
 

солнышко ®

Пол:
Не указан
Стаж:
7 месяцев 6 дней
Сообщений:
565

Точка возврата
Backtrace- Год выпуска: 2018
Страна: Канада, США
Жанр: драма, криминал
Продолжительность: 01:27:29
Перевод: Любительский (многоголосый закадровый) | HDrezka Studio
Субтитры: нет-Режиссер: Брайан А. Миллер / Brian A. Miller
В ролях: Сильвестр Сталлоне, Райан Гузман, Мэттью Модайн, Медоу Уильямс, Кристофер МакДональд, Колин Эглсфилд, Байли Каррен, Лидия Халл, Свен Теммел, Хезер Йохансен
О фильме: Дерзкое ограбление инкассаторской машины стало самым громким преступлением в городе. Главную тайну - где спрятаны украденные деньги - сможет раскрыть только единственный выживший после заварухи преступник. Но есть один нюанс: он полностью потерял память. Раскрыть преступление поможет экспериментальное вещество: грабитель, изучая глубины своего разума, и коп, следующий за ним, должны прийти к точке возврата. Точке, где всё началось и должно закончиться.-Качество: BDRip
Автор: Yugosan
Формат: AVI
Видео: 720x384 (1.88:1), 23.976 fps, XviD build 73 ~2178 kbps avg, 0.33 bit/pixel
Аудио: 48 kHz, AC3 Dolby Digital, 2/0 (L,R) ch, ~192 kbps
Скачать: Сэмпл-

скриншоты

MI

Код:Общее
Полное имя : D:\Backtrace Remux 2018\BDMV\STREAM\Backtrace.2018.BDRip.avi
Формат : AVI
Формат/Информация : Audio Video Interleave
Размер файла : 1,45 Гбайт
Продолжительность : 1 ч. 27 м.
Общий поток : 2380 Кбит/сек
Программа кодирования : VirtualDubMod 1.5.10.3 | www.virtualdub-fr.org || (build 2550/release)
Библиотека кодирования : VirtualDubMod build 2550/release
Видео
Идентификатор : 0
Формат : MPEG-4 Visual
Профиль формата : Advanced Simple@L5
Настройки формата : BVOP2
Параметр BVOP формата : 2
Параметр QPel формата : Нет
Параметр GMC формата : Без точки перехода
Параметр матрицы формата : Default (H.263)
Идентификатор кодека : XVID
Идентификатор кодека/Подсказка : XviD
Продолжительность : 1 ч. 27 м.
Битрейт : 2179 Кбит/сек
Ширина : 720 пикселей
Высота : 384 пикселя
Соотношение сторон : 1,85:1
Частота кадров : 23,976 (24000/1001) кадра/сек
Цветовое пространство : YUV
Субдискретизация насыщенности : 4:2:0
Битовая глубина : 8 бит
Тип развёртки : Прогрессивная
Метод сжатия : С потерями
Бит/(Пиксели*Кадры) : 0.329
Размер потока : 1,33 Гбайт (92%)
Библиотека кодирования : XviD 73
Аудио
Идентификатор : 1
Формат : AC-3
Формат/Информация : Audio Coding 3
Идентификатор кодека : 2000
Продолжительность : 1 ч. 27 м.
Вид битрейта : Постоянный
Битрейт : 192 Кбит/сек
Каналы : 2 канала
Расположение каналов : Front: L R
Частота : 48,0 КГц
Частота кадров : 31,250 кадров/сек (1536 SPF)
Битовая глубина : 16 бит
Метод сжатия : С потерями
Размер потока : 120 Мбайт (8%)
Выравнивание : Разделение по промежуткам
Продолжительность промежутка : 42 мс. (1,00 видеокадр)
Время предзагрузки промежутка : 500 мс.
ServiceKind/String : Complete Main
[cybertorrent.ru].t1405.torrent 
Торрент: Зарегистрирован [ 2019-03-24 17:09 ] · FE435597A955B7CFE40E8F21BFFF62FC5F95A8C1

Скачать .torrent

Скачать

15 KB

Статус: проверено
Скачан: 0 раз
Размер: 1,45 GB
terms.php
Профиль ЛС
Показать сообщения:    

Текущее время: 19-Окт 05:09

Часовой пояс: UTC ± 0



Вы не можете начинать темы
Вы не можете отвечать на сообщения
Вы не можете редактировать свои сообщения
Вы не можете удалять свои сообщения
Вы не можете голосовать в опросах
Вы не можете прикреплять файлы к сообщениям
Вы можете скачивать файлы