Статистика раздачи
Размер:  12,73 GB   |    Зарегистрирован:  2 месяца 1 день   |    Скачан:  0 раз
DL-List: Нет

Полного источника не было: Никогда

 
     
 
 

MAGNAT ®

Пол:
Мужской
Стаж:
1 год 2 месяца
Сообщений:
7925

Дублинские убийства / Dublin Murders- Год выпуска: 2019
Страна: Великобритания
Жанр: детектив, криминал, драма
Продолжительность: 00:57:57-Перевод: Профессиональный (многоголосый закадровый) - TVShows-Режиссёр: Джон Хэйес, Сол Дибб, Ребекка Гатуард-В ролях: Сара Грин, Киллиан Скотт, Майкл Д’Арси, Юджин О’Харе, Том Вон-Лолор, Мо Данфорд, Элли О’Халлоран, Ниал Джордан, Йен Кенни, Конлет Хилл-Описание: В густом лесу на окраине Дублина находят труп ребёнка. Дело ведут полицейские Роб Райли и Кэсси Мэддокс. В ходе расследования они подозревают, что убийство связано с пропажей троих детей в дублинских лесах больше двадцати лет назад. Жуткие факты, открывающиеся следователям, заставляют их лицом к лицу столкнуться со своими собственными демонами. А взаимоотношения напарников переживают серьёзную проверку.
Качество: WEB-DL 720p
Контейнер: MKV
Видео: MPEG-4 AVC, 1280x640, 23.976 fps, 3737 Kbps
Аудио 1: AC3, 48.0 KHz, 6 ch, 384 kbps [Rus]
Аудио 2: EAC3, 48.0 KHz, 6 ch, 640 kbps [Eng]
Субтитры: отсутствуют-Реклама: Отсутствует-

MediaInfo

General
Complete name : Downloads\Dublin.Murders.S01E01.720p.TVShows.mkv
Format : Matroska
Format version : Version 4 / Version 2
File size : 1.97 GiB
Duration : 57mn 57s
Overall bit rate mode : Constant
Overall bit rate : 4 858 Kbps
Encoded date : UTC 2019-10-18 14:12:54
Writing application : mkvmerge v33.1.0 ('Primrose') 64-bit
Writing library : libebml v1.3.7 + libmatroska v1.5.0
DURATION : 00:57:57.536000000
NUMBER_OF_FRAMES : 108673
NUMBER_OF_BYTES : 166921728
_STATISTICS_WRITING_APP : mkvmerge v33.1.0 ('Primrose') 64-bit
_STATISTICS_WRITING_DATE_UTC : 2019-10-18 14:12:54
_STATISTICS_TAGS : BPS DURATION NUMBER_OF_FRAMES NUMBER_OF_BYTES
Video #1
ID : 1
Format : AVC
Format/Info : Advanced Video Codec
Format profile : High@L3.1
Format settings, CABAC : Yes
Format settings, ReFrames : 4 frames
Codec ID : V_MPEG4/ISO/AVC
Duration : 57mn 57s
Bit rate mode : Constant
Bit rate : 3 737 Kbps
Nominal bit rate : 6 000 Kbps
Width : 1 280 pixels
Height : 640 pixels
Display aspect ratio : 2.000
Frame rate mode : Constant
Frame rate : 23.976 fps
Color space : YUV
Chroma subsampling : 4:2:0
Bit depth : 8 bits
Scan type : Progressive
Bits/(Pixel*Frame) : 0.190
Stream size : 1.51 GiB (77%)
Default : Yes
Forced : No
Color primaries : BT.709
Transfer characteristics : BT.709
Matrix coefficients : BT.709
Color range : Limited
Audio #2
ID : 2
Format : AC-3
Format/Info : Audio Coding 3
Mode extension : CM (complete main)
Format settings, Endianness : Big
Codec ID : A_AC3
Duration : 57mn 57s
Bit rate mode : Constant
Bit rate : 384 Kbps
Channel(s) : 6 channels
Channel positions : Front: L C R, Side: L R, LFE
Sampling rate : 48.0 KHz
Bit depth : 16 bits
Compression mode : Lossy
Stream size : 159 MiB (8%)
Title : TVShows
Language : Russian
Default : Yes
Forced : Yes
Audio #3
ID : 3
Format : E-AC-3
Format/Info : Audio Coding 3
Format settings, Endianness : Big
Codec ID : A_EAC3
Duration : 57mn 57s
Bit rate mode : Constant
Bit rate : 640 Kbps
Channel(s) : 6 channels
Channel positions : Front: L C R, Side: L R, LFE
Sampling rate : 48.0 KHz
Compression mode : Lossy
Stream size : 265 MiB (13%)
Title : Original
Language : English
Default : No
Forced : No

Скриншоты

[cybertorrent.ru].t14069.torrent 
Торрент: Зарегистрирован [ 2020-03-31 15:07 ] · 110C346D41161E27ACD0E3DBFB6FE8B69D0F875C

Скачать .torrent

Скачать

65 KB

Статус: проверено
Скачан: 0 раз
Размер: 12,73 GB  ·  Тип торрента
terms.php
Профиль [ЛС]
Показать сообщения:    

Текущее время: 01-Июн 15:58

Часовой пояс: UTC ± 0



Вы не можете начинать темы
Вы не можете отвечать на сообщения
Вы не можете редактировать свои сообщения
Вы не можете удалять свои сообщения
Вы не можете голосовать в опросах
Вы не можете прикреплять файлы к сообщениям
Вы можете скачивать файлы