Статистика раздачи
Размер:  1,02 GB   |    Зарегистрирован:  9 месяцев 1 день   |    Скачан:  0 раз

Полного источника не было: Никогда

Личеров:  2  [  0 KB/s  ]  
 
   
 
 

antikvar ®

Пол:
Не указан
Стаж:
9 месяцев 2 дня
Сообщений:
50

Человек-паук: Новая угроза / Spider-Man
Страна: США
Жанр: Анимационный, семейный, фантастика
Сезон (количество): 1
Серии (количество): 3
Продолжительность: 00:21:21
Год выпуска: 2008
Перевод: Профессиональный (многоголосый закадровый)
Русские субтитры: нет
Режиссёр: Себастьян Бродин, Алан Колдуэлл, Джонни Дэрелл
Роли озвучивали: Нил Патрик Харрис, Лайза Лоеб, Ян Зиринг, Эдвард Эснер
Описание: Новая версия классического мультсериала про Человека-паука. После укуса радиоактивного паука Питер Паркер обнаруживает, что обладает паучьей суперсилой. Надеясь, что эти новые возможности помогут ему разбогатеть и прославиться, он забывает о других и, отказавшись помочь полицейскому в поимке убегающего преступника, становится причиной смерти своего дяди Бена. Осознав всю глубину своего падения, он решает использовать свои способности для борьбы с преступностью и становится супергероем Человеком-пауком. Питеру приходится совмещать борьбу с суперзлодеями со своей личной жизнью, работой фотокорреспондентом в Дейли Багл и противостоянием с главным редактором, утверждающим, что Человек-паук - это преступник, который должен сидеть в тюрьме.
Список серий:
Новая угроза / Royal Scam
Обманутый Человек Паук крадет супер чип, разработанный специально для секретных спутниковых передач информации для международных финансовых рынков. И теперь ему предстоит вернуть этот чип назад.
Герой или злодей / Heroes and Villains
Человек Паук сражается с Турбо Джетом - современным Робин Гудом, крадущим у богатых и отдающим бедным. И наш герой практически побеждает, пока его, по ошибке, не принимают за сообщника Турбо Джета.
Доктор Зло / Flash Memory
Доктор Цельнер тестирует свои "разработки" на Флеше. Эксперимент протекает хорошо, но на Флеше не отражаются физические эффекты. И тогда профессор решает найти нового подопытного - Питера Паркера...
Доп. информация: Рип с ЭТОЙ раздачи
SAMPLE 20.8 Mb
Качество: DVDRip
Формат: AVI
Видео: 704x384 (1.83:1), 29.970 fps, XviD MPEG-4 ~2108 kbps avg, 0.26 bit/pixel
Аудио: 48 kHz, AC3 Dolby Digital, 2/0 (L,R) ch, ~192.00 kbps avg
Субтитры: отсутствуют

Подробные технические данные

General
Complete name : F:\ФИЛЬМЫ\мультфильмы\Человек паук\Новая угроза\02 Герой или злодей - Heroes and Villains.avi
Format : AVI
Format/Info : Audio Video Interleave
File size : 353 MiB
Duration : 21mn 21s
Overall bit rate : 2 312 Kbps
Writing application : VirtualDubMod 1.5.4.1 (build 2178/release)
Writing library : VirtualDubMod build 2178/release
Video
ID : 0
Format : MPEG-4 Visual
Format profile : Advanced Simple@L5
Format settings, BVOP : 2
Format settings, QPel : No
Format settings, GMC : No warppoints
Format settings, Matrix : Default (H.263)
Muxing mode : Packed bitstream
Codec ID : XVID
Codec ID/Hint : XviD
Duration : 21mn 21s
Bit rate : 2 109 Kbps
Width : 704 pixels
Height : 384 pixels
Display aspect ratio : 16:9
Frame rate : 29.970 fps
Color space : YUV
Chroma subsampling : 4:2:0
Bit depth : 8 bits
Scan type : Progressive
Compression mode : Lossy
Bits/(Pixel*Frame) : 0.260
Stream size : 322 MiB (91%)
Writing library : XviD 58
Audio
ID : 1
Format : AC-3
Format/Info : Audio Coding 3
Mode extension : CM (complete main)
Codec ID : 2000
Duration : 21mn 21s
Bit rate mode : Constant
Bit rate : 192 Kbps
Channel(s) : 2 channels
Channel positions : Front: L R
Sampling rate : 48.0 KHz
Bit depth : 16 bits
Compression mode : Lossy
Stream size : 29.3 MiB (8%)
Alignment : Split accross interleaves
Interleave, duration : 33 ms (1.00 video frame)
Interleave, preload duration : 500 ms

Скриншоты

[cybertorrent.ru].t1407.torrent 
Торрент: Зарегистрирован [ 2018-02-16 03:41 ] · AB0B5A7599E02814CF1603DE1692AAD3C9A4E2BA

Скачать .torrent

Скачать

21 KB

Статус: проверено
Скачан: 0 раз
Размер: 1,02 GB
Профиль [ЛС]
Показать сообщения:    

Текущее время: 17-Ноя 13:09

Часовой пояс: UTC ± 0



Вы не можете начинать темы
Вы не можете отвечать на сообщения
Вы не можете редактировать свои сообщения
Вы не можете удалять свои сообщения
Вы не можете голосовать в опросах
Вы не можете прикреплять файлы к сообщениям
Вы можете скачивать файлы
Torrents24.ru открытый BitTorrent Torrents24.pl открытый BitTorrent CyberTorrent.ru открытый BitTorrent BtList.ru рейтинг BitTorrent трекеров Яндекс.Метрика