Статистика раздачи
Нет
 
     
 
 

MAGNAT ®

Пол:
Мужской
Стаж:
2 года 6 месяцев
Сообщений:
11696

Откуда: Москва

Rein Rannap / Selfies With Classics
Жанр: Classical
Страна-производитель диска: Estonia
Год издания диска: 2018
Издатель (лейбл): Klaveripoeg
Номер по каталогу: Klp 011
Страна: Estonia
Аудиокодек: FLAC
Тип рипа: image+.cue
Битрейт аудио: lossless
Продолжительность: 00:51:03
Источник: собственный рип
Наличие сканов в содержимом раздачи: да
Треклист:
01. Saint-Saëns / Rannap - Swan / Luik
02. Beethoven / Rannap - Für Elise / Elisele
03. Ravel / Rannap - Bolero / Boolero
04. Schubert / Rannap - Ave Maria
05. Brahms / Rannap - Hungerian Dance No. 5 / Ungari Tants
06. Rodrigo / Rannap - Concierto De Aranjuez / Kitarrikontsert
07. Capua - Mazzucchi / Rannap - O Sole Mio Fantasy / O Sole Mio Fantaasia
08. Mozart / Rannap - Turkish March / Türgi Marss
09. J. S. Bach / Rannap - Bachissimo! Mixture Of Keyboard Works in D Minor
10. Brahms / Rannap - Lullaby / Hällilaul
11. Rimsky-Korsakov / Rannap - Flight Of The Bumblebee / Kimalase Lend
12. Rannap - Variations On Yesterday / Variatsioonid Yesterday Teemal

Лог создания рипа

Exact Audio Copy V1.0 beta 3 from 29. August 2011
Отчёт EAC об извлечении, выполненном 26. января 2020, 1:34
Rein Rannap / Selfies With Classics
Дисковод: TS8XDVDRTranscend Adapter: 0 ID: 0
Режим чтения : Достоверность
Использование точного потока : Да
Отключение кэша аудио : Да
Использование указателей C2 : Нет
Коррекция смещения при чтении : 6
Способность читать области Lead-in и Lead-out : Нет
Заполнение пропущенных сэмплов тишиной : Да
Удаление блоков с тишиной в начале и конце : Нет
При вычислениях CRC использовались нулевые сэмплы : Да
Интерфейс : Встроенный Win32-интерфейс для Win NT/2000
Выходной формат : Пользовательский кодировщик
Выбранный битрейт : 128 kBit/s
Качество : Высокий
Добавление ID3-тега : Нет
Утилита сжатия : C:\Program Files\MediaCoder\codecs64\flac.exe
Дополнительные параметры : -V -8 -T "Date=%year%" -T "Genre=%genre%" %source%
TOC извлечённого CD
Трек | Старт | Длительность | Начальный сектор | Конечный сектор
---------------------------------------------------------------------
1 | 0:00.00 | 4:04.03 | 0 | 18302
2 | 4:04.03 | 3:26.05 | 18303 | 33757
3 | 7:30.08 | 4:49.16 | 33758 | 55448
4 | 12:19.24 | 2:28.26 | 55449 | 66574
5 | 14:47.50 | 4:07.18 | 66575 | 85117
6 | 18:54.68 | 4:25.02 | 85118 | 104994
7 | 23:19.70 | 7:39.39 | 104995 | 139458
8 | 30:59.34 | 3:06.12 | 139459 | 153420
9 | 34:05.46 | 4:09.51 | 153421 | 172146
10 | 38:15.22 | 3:54.71 | 172147 | 189767
11 | 42:10.18 | 1:51.32 | 189768 | 198124
12 | 44:01.50 | 7:01.56 | 198125 | 229755
Характеристики диапазона извлечения и сообщения об ошибках
Выбранный диапазон
Имя файла C:\Users\Oleg\Downloads\Rein Rannap - Selfies With Classics (2018) [FLAC]\Rein Rannap - Selfies With Classics.wav
Пиковый уровень 96.5 %
Скорость извлечения 1.9 X
Качество диапазона 100.0 %
CRC теста C9956053
CRC копии C9956053
Копирование... OK
Ошибок не произошло
Конец отчёта
==== Контрольная сумма отчёта C6280B5D3E0FD2918654953F8AF2FD68BC8388F34699A4988A1CDC3A4B70F808 ====

Содержание индексной карты (.CUE)

REM GENRE Classical
REM DATE 2018
REM DISCID 9B0BF70C
REM COMMENT "ExactAudioCopy v1.0b3"
PERFORMER "Rein Rannap"
TITLE "Selfies With Classics "
FILE "Rein Rannap - Selfies With Classics.flac" WAVE
TRACK 01 AUDIO
TITLE "Saint-Saens / Rannap - Swan / Luik"
PERFORMER "Rein Rannap"
INDEX 01 00:00:00
TRACK 02 AUDIO
TITLE "Beethoven / Rannap - Fur Elise / Elisele"
PERFORMER "Rein Rannap"
INDEX 00 04:02:17
INDEX 01 04:04:03
TRACK 03 AUDIO
TITLE "Ravel / Rannap - Bolero / Boolero"
PERFORMER "Rein Rannap"
INDEX 00 07:29:16
INDEX 01 07:30:08
TRACK 04 AUDIO
TITLE "Schubert / Rannap - Ave Maria"
PERFORMER "Rein Rannap"
INDEX 00 12:18:07
INDEX 01 12:19:24
TRACK 05 AUDIO
TITLE "Brahms / Rannap - Hungerian Dance No. 5 / Ungari Tants"
PERFORMER "Rein Rannap"
INDEX 00 14:47:46
INDEX 01 14:47:50
TRACK 06 AUDIO
TITLE "Rodrigo / Rannap - Concierto De Aranjuez / Kitarrikontsert"
PERFORMER "Rein Rannap"
INDEX 00 18:54:64
INDEX 01 18:54:68
TRACK 07 AUDIO
TITLE "Capua - Mazzucchi / Rannap - O Sole Mio Fantasy / O Sole Mio Fantaasia"
PERFORMER "Rein Rannap"
INDEX 00 23:17:37
INDEX 01 23:19:70
TRACK 08 AUDIO
TITLE "Mozart / Rannap - Turkish March / Turgi Marss"
PERFORMER "Rein Rannap"
INDEX 00 30:58:49
INDEX 01 30:59:34
TRACK 09 AUDIO
TITLE "J. S. Bach / Rannap - Bachissimo! Mixture Of Keyboard Works in D Minor"
PERFORMER "Rein Rannap"
INDEX 00 34:04:63
INDEX 01 34:05:46
TRACK 10 AUDIO
TITLE "Brahms / Rannap - Lullaby / Hallilaul"
PERFORMER "Rein Rannap"
INDEX 00 38:14:61
INDEX 01 38:15:22
TRACK 11 AUDIO
TITLE "Rimsky-Korsakov / Rannap - Flight Of The Bumblebee / Kimalase Lend"
PERFORMER "Rein Rannap"
INDEX 00 42:10:06
INDEX 01 42:10:18
TRACK 12 AUDIO
TITLE "Rannap - Variations On Yesterday / Variatsioonid Yesterday Teemal"
PERFORMER "Rein Rannap"
INDEX 00 44:01:16
INDEX 01 44:01:50

Об исполнителе (группе)

Известный эстонский пианист-виртуоз, композитор, лидер легендарной рок-группы «Ruja» Рейн Раннап

Состав

Rein Rannap
Профиль [ЛС]
Показать сообщения:    

Текущее время: 20-Окт 03:48

Часовой пояс: UTC ± 0



Вы не можете начинать темы
Вы не можете отвечать на сообщения
Вы не можете редактировать свои сообщения
Вы не можете удалять свои сообщения
Вы не можете голосовать в опросах
Вы не можете прикреплять файлы к сообщениям
Вы не можете скачивать файлы