Статистика раздачи
Скачал
 
     
 
 

MAGNAT ®

Пол:
Мужской
Стаж:
2 года 8 месяцев
Сообщений:
13012

Откуда: Москва

London Stars Orchestra And Singers
ABBA Songs Featured In The Musical
MAMMA MIA!
Жанр: Musical, Stage & Screen, Easy Listening Classical, Pop
Страна-производитель диска: Portugal
Год издания диска: November 25, 2000
Издатель (лейбл): Wonderful Music of
Номер по каталогу: WMO 90367
Страна: United Kingdom
Аудиокодек: FLAC
Тип рипа: image+.cue
Битрейт аудио: lossless
Продолжительность: 01:17:51
Источник: собственный рип
Наличие сканов в содержимом раздачи: да 600dpi

Треклист / Технические данные

Треклист:01. Honey Honey (02:54)
02. Money, Money, Money (03:08)
03. Thank You for the Music (03:50)
04. Mamma Mia (03:29)
05. Chiquitita (05:13)
06. Dancing Queen (03:40)
07. Lay All Your Love on Me (04:23)
08. Super Trouper (04:08)
09. Gimme! Gimme! Gimme! (04:41)
10. The Name of the Game (03:54)
11. Voulez Vous (04:18)
12. Under Attack (03:33)
13. One of Us (03:39)
14. S.O.S. (03:20)
15. Does Your Mother Know (03:10)
16. Knowing Me, Knowing You (04:02)
17. The Winner Takes It All (04:50)
18. Take a Chance on Me (03:43)
19. I Do, I Do, I Do, I Do, I Do (03:15)
20. I Have a Dream (04:33)

Лог создания рипа

Exact Audio Copy V1.3 from 2. September 2016
Отчёт EAC об извлечении, выполненном 26. января 2020, 18:25
London Stars Orchestra and Singers / ABBA Songs
Дисковод: PLEXTOR DVDR PX-712A Adapter: 1 ID: 2
Режим чтения : Достоверность
Использование точного потока : Да
Отключение кэша аудио : Да
Использование указателей C2 : Нет
Коррекция смещения при чтении : 30
Способность читать области Lead-in и Lead-out : Нет
Заполнение пропущенных сэмплов тишиной : Да
Удаление блоков с тишиной в начале и конце : Нет
При вычислениях CRC использовались нулевые сэмплы : Да
Интерфейс : Установленный внешний ASPI-интерфейс
Выходной формат : Пользовательский кодировщик
Выбранный битрейт : 128 kBit/s
Качество : Высокий
Добавление ID3-тега : Нет
Утилита сжатия : C:\Program Files\Exact Audio Copy\FLAC\FLAC.EXE
Дополнительные параметры : -V -8 -T "Genre=%genre%" -T "Artist=%artist%" -T "Title=%title%" -T "Album=%albumtitle%" -T "Date=%year%" -T "Tracknumber=%tracknr%" -T "Comment=%comment%" %source%
TOC извлечённого CD
Трек | Старт | Длительность | Начальный сектор | Конечный сектор
---------------------------------------------------------------------
1 | 0:00.00 | 2:54.63 | 0 | 13112
2 | 2:54.63 | 3:08.44 | 13113 | 27256
3 | 6:03.32 | 3:50.67 | 27257 | 44573
4 | 9:54.24 | 3:29.18 | 44574 | 60266
5 | 13:23.42 | 5:13.17 | 60267 | 83758
6 | 18:36.59 | 3:40.04 | 83759 | 100262
7 | 22:16.63 | 4:23.05 | 100263 | 119992
8 | 26:39.68 | 4:08.67 | 119993 | 138659
9 | 30:48.60 | 4:41.29 | 138660 | 159763
10 | 35:30.14 | 3:54.38 | 159764 | 177351
11 | 39:24.52 | 4:18.39 | 177352 | 196740
12 | 43:43.16 | 3:33.39 | 196741 | 212754
13 | 47:16.55 | 3:39.21 | 212755 | 229200
14 | 50:56.01 | 3:20.31 | 229201 | 244231
15 | 54:16.32 | 3:10.00 | 244232 | 258481
16 | 57:26.32 | 4:02.17 | 258482 | 276648
17 | 61:28.49 | 4:50.06 | 276649 | 298404
18 | 66:18.55 | 3:43.55 | 298405 | 315184
19 | 70:02.35 | 3:15.06 | 315185 | 329815
20 | 73:17.41 | 4:33.43 | 329816 | 350333
Характеристики диапазона извлечения и сообщения об ошибках
Выбранный диапазон
Имя файла I:\MOI_RAZDACI\London Stars Orchestra And Singers Present - ABBA Songs... (2000)\London Stars Orchestra And Singers Present - ABBA Songs... (2000)\London Stars Orchestra and Singers - ABBA Songs.wav
Пиковый уровень 100.0 %
Скорость извлечения 3.8 X
Качество диапазона 99.9 %
CRC теста 0B17123B
CRC копии 0B17123B
Копирование... OK
Ошибок не произошло
AccurateRip: сводка
Трек 1 отсутствует в базе данных
Трек 2 отсутствует в базе данных
Трек 3 отсутствует в базе данных
Трек 4 отсутствует в базе данных
Трек 5 отсутствует в базе данных
Трек 6 отсутствует в базе данных
Трек 7 отсутствует в базе данных
Трек 8 отсутствует в базе данных
Трек 9 отсутствует в базе данных
Трек 10 отсутствует в базе данных
Трек 11 отсутствует в базе данных
Трек 12 отсутствует в базе данных
Трек 13 отсутствует в базе данных
Трек 14 отсутствует в базе данных
Трек 15 отсутствует в базе данных
Трек 16 отсутствует в базе данных
Трек 17 отсутствует в базе данных
Трек 18 отсутствует в базе данных
Трек 19 отсутствует в базе данных
Трек 20 отсутствует в базе данных
Ни одного трека нет в базе AccurateRip
Конец отчёта
---- CUETools DB Plugin V2.1.6
[CTDB TOCID: fqcCLv1PYKDlfGvsyPhx3G9YTyY-] found
Submit result: fqcCLv1PYKDlfGvsyPhx3G9YTyY- has been confirmed
Track | CTDB Status
1 | (5/5) Accurately ripped
2 | (5/5) Accurately ripped
3 | (5/5) Accurately ripped
4 | (5/5) Accurately ripped
5 | (5/5) Accurately ripped
6 | (5/5) Accurately ripped
7 | (5/5) Accurately ripped
8 | (5/5) Accurately ripped
9 | (5/5) Accurately ripped
10 | (5/5) Accurately ripped
11 | (5/5) Accurately ripped
12 | (5/5) Accurately ripped
13 | (5/5) Accurately ripped
14 | (5/5) Accurately ripped
15 | (5/5) Accurately ripped
16 | (5/5) Accurately ripped
17 | (5/5) Accurately ripped
18 | (5/5) Accurately ripped
19 | (5/5) Accurately ripped
20 | (4/5) Accurately ripped
==== Контрольная сумма отчёта 7BAAF8E6FE145D951EC9618A99DF6B8B530AEA6D149DB5FD98584FC8966EE237 ====

Содержание индексной карты (.CUE)

REM GENRE Pop
REM DATE 2000
REM DISCID 2B123F14
REM COMMENT "ExactAudioCopy v1.3"
PERFORMER "London Stars Orchestra and Singers"
TITLE "ABBA Songs"
REM COMPOSER ""
FILE "London Stars Orchestra and Singers - ABBA Songs.flac" WAVE
TRACK 01 AUDIO
TITLE "Honey Honey"
PERFORMER "London Stars Orchestra and Singers"
REM COMPOSER ""
INDEX 01 00:00:00
TRACK 02 AUDIO
TITLE "Money, Money, Money"
PERFORMER "London Stars Orchestra and Singers"
REM COMPOSER ""
INDEX 00 02:52:63
INDEX 01 02:54:63
TRACK 03 AUDIO
TITLE "Thank You for the Music"
PERFORMER "London Stars Orchestra and Singers"
REM COMPOSER ""
INDEX 00 06:01:32
INDEX 01 06:03:32
TRACK 04 AUDIO
TITLE "Mamma Mia"
PERFORMER "London Stars Orchestra and Singers"
REM COMPOSER ""
INDEX 00 09:52:24
INDEX 01 09:54:24
TRACK 05 AUDIO
TITLE "Chiquitita"
PERFORMER "London Stars Orchestra and Singers"
REM COMPOSER ""
INDEX 00 13:21:42
INDEX 01 13:23:42
TRACK 06 AUDIO
TITLE "Dancing Queen"
PERFORMER "London Stars Orchestra and Singers"
REM COMPOSER ""
INDEX 00 18:34:59
INDEX 01 18:36:59
TRACK 07 AUDIO
TITLE "Lay All Your Love on Me"
PERFORMER "London Stars Orchestra and Singers"
REM COMPOSER ""
INDEX 00 22:14:63
INDEX 01 22:16:63
TRACK 08 AUDIO
TITLE "Super Trouper"
PERFORMER "London Stars Orchestra and Singers"
REM COMPOSER ""
INDEX 00 26:37:68
INDEX 01 26:39:68
TRACK 09 AUDIO
TITLE "Gimme! Gimme! Gimme!"
PERFORMER "London Stars Orchestra and Singers"
REM COMPOSER ""
INDEX 00 30:46:60
INDEX 01 30:48:60
TRACK 10 AUDIO
TITLE "The Name of the Game"
PERFORMER "London Stars Orchestra and Singers"
REM COMPOSER ""
INDEX 00 35:28:14
INDEX 01 35:30:14
TRACK 11 AUDIO
TITLE "Voulez Vous"
PERFORMER "London Stars Orchestra and Singers"
REM COMPOSER ""
INDEX 00 39:22:52
INDEX 01 39:24:52
TRACK 12 AUDIO
TITLE "Under Attack"
PERFORMER "London Stars Orchestra and Singers"
REM COMPOSER ""
INDEX 00 43:41:16
INDEX 01 43:43:16
TRACK 13 AUDIO
TITLE "One of Us"
PERFORMER "London Stars Orchestra and Singers"
REM COMPOSER ""
INDEX 00 47:14:55
INDEX 01 47:16:55
TRACK 14 AUDIO
TITLE "S.O.S."
PERFORMER "London Stars Orchestra and Singers"
REM COMPOSER ""
INDEX 00 50:54:01
INDEX 01 50:56:01
TRACK 15 AUDIO
TITLE "Does Your Mother Know"
PERFORMER "London Stars Orchestra and Singers"
REM COMPOSER ""
INDEX 00 54:14:32
INDEX 01 54:16:32
TRACK 16 AUDIO
TITLE "Knowing Me, Knowing You"
PERFORMER "London Stars Orchestra and Singers"
REM COMPOSER ""
INDEX 00 57:24:32
INDEX 01 57:26:32
TRACK 17 AUDIO
TITLE "The Winner Takes It All"
PERFORMER "London Stars Orchestra and Singers"
REM COMPOSER ""
INDEX 00 61:26:49
INDEX 01 61:28:49
TRACK 18 AUDIO
TITLE "Take a Chance on Me"
PERFORMER "London Stars Orchestra and Singers"
REM COMPOSER ""
INDEX 00 66:16:55
INDEX 01 66:18:55
TRACK 19 AUDIO
TITLE "I Do, I Do, I Do, I Do, I Do"
PERFORMER "London Stars Orchestra and Singers"
REM COMPOSER ""
INDEX 00 70:00:35
INDEX 01 70:02:35
TRACK 20 AUDIO
TITLE "I Have a Dream"
PERFORMER "London Stars Orchestra and Singers"
REM COMPOSER ""
INDEX 00 73:15:41
INDEX 01 73:17:41

Лог проверки качества / Скриншот спектра частот

-----------------------
DON'T MODIFY THIS FILE
-----------------------
PERFORMER: auCDtect Task Manager, ver. 1.6.0 RC1 build 1.6.0.1
Copyright (c) 2008-2010 y-soft. All rights reserved
http://y-soft.org
ANALYZER: auCDtect: CD records authenticity detector, version 0.8.2
Copyright (c) 2004 Oleg Berngardt. All rights reserved.
Copyright (c) 2004 Alexander Djourik. All rights reserved.
FILE: London Stars Orchestra and Singers - ABBA Songs.flac
Size: 564178704 Hash: 00AE28915D7F97C1B46AB872FA23A87A Accuracy: -m0
Conclusion: CDDA 100%
Signature: 4A802B1333D305147A4F27669535E077EC0837A2

Скриншот спектра частот

Профиль [ЛС]
Показать сообщения:    

Текущее время: 01-Дек 03:13

Часовой пояс: UTC ± 0



Вы не можете начинать темы
Вы не можете отвечать на сообщения
Вы не можете редактировать свои сообщения
Вы не можете удалять свои сообщения
Вы не можете голосовать в опросах
Вы не можете прикреплять файлы к сообщениям
Вы не можете скачивать файлы