Статистика раздачи
Скачал
 
     
 
 

MAGNAT ®

Пол:
Мужской
Стаж:
2 года 8 месяцев
Сообщений:
13012

Откуда: Москва

Alfie Boe / Onward
Жанр: Classical Crossover
Страна-производитель диска: UK & Europe
Год издания диска: 2007
Издатель (лейбл): EMI Classics
Номер по каталогу: 388429
Страна: UK
Аудиокодек: FLAC
Тип рипа: tracks+.cue
Битрейт аудио: lossless
Продолжительность: 00:46:15
Источник: собственный рип
Наличие сканов в содержимом раздачи: да

01. A Living Prayer
02. Gaelic Blessing
03. Amazing Grace
04. The Lord Is My Shepherd (Psalm 23)
05. I Vow To The My Country
06. I Wonder As I Wonder
07. Dear Lord And Father Of Mankind
08. Balulalow (From Ceremony Of Cards)
09. Ave Verum Corpus
10. Be Still My Soul (Finlandia Hymn)
11. Cujus Animam (From Stabat Mater)
12. You'll Never Walk Alone

Лог создания рипа

Exact Audio Copy V1.3 from 2. September 2016
EAC extraction logfile from 2. December 2019, 8:26
Alfie Boe / Onward
Used drive : Optiarc DVD RW AD-7243S Adapter: 1 ID: 1
Read mode : Secure
Utilize accurate stream : Yes
Defeat audio cache : Yes
Make use of C2 pointers : No
Read offset correction : 48
Overread into Lead-In and Lead-Out : No
Fill up missing offset samples with silence : Yes
Delete leading and trailing silent blocks : No
Null samples used in CRC calculations : Yes
Used interface : Native Win32 interface for Win NT & 2000
Gap handling : Appended to previous track
Used output format : User Defined Encoder
Selected bitrate : 1024 kBit/s
Quality : High
Add ID3 tag : No
Command line compressor : C:\Program Files (x86)\Exact Audio Copy\Flac\flac.exe
Additional command line options : -8 -V -T "ARTIST=%artist%" -T "TITLE=%title%" -T "ALBUM=%albumtitle%" -T "DATE=%year%" -T "TRACKNUMBER=%tracknr%" -T "GENRE=%genre%" -T "totaltracks=%numtracks%" %source%
TOC of the extracted CD
Track | Start | Length | Start sector | End sector
---------------------------------------------------------
1 | 0:00.00 | 4:01.51 | 0 | 18125
2 | 4:01.51 | 2:43.30 | 18126 | 30380
3 | 6:45.06 | 3:42.65 | 30381 | 47095
4 | 10:27.71 | 3:02.43 | 47096 | 60788
5 | 13:30.39 | 3:41.33 | 60789 | 77396
6 | 17:11.72 | 4:06.33 | 77397 | 95879
7 | 21:18.30 | 4:02.53 | 95880 | 114082
8 | 25:21.08 | 1:58.63 | 114083 | 122995
9 | 27:19.71 | 3:27.49 | 122996 | 138569
10 | 30:47.45 | 3:58.16 | 138570 | 156435
11 | 34:45.61 | 5:35.35 | 156436 | 181595
12 | 40:21.21 | 2:53.18 | 181596 | 194588
Track 1
Filename D:\LOSSLESS\!Classical Crossover\Alfie Boe\2007 Onward\01 - Alfie Boe - A Living Prayer.wav
Pre-gap length 0:00:02.00
Peak level 99.8 %
Extraction speed 2.0 X
Track quality 99.9 %
Test CRC 86D9A9D6
Copy CRC 86D9A9D6
Copy OK
Track 2
Filename D:\LOSSLESS\!Classical Crossover\Alfie Boe\2007 Onward\02 - Alfie Boe - Gaelic Blessing.wav
Peak level 54.4 %
Extraction speed 2.4 X
Track quality 100.0 %
Test CRC 6749E609
Copy CRC 6749E609
Copy OK
Track 3
Filename D:\LOSSLESS\!Classical Crossover\Alfie Boe\2007 Onward\03 - Alfie Boe - Amazing Grace.wav
Peak level 99.7 %
Extraction speed 2.7 X
Track quality 100.0 %
Test CRC A6D2BE47
Copy CRC A6D2BE47
Copy OK
Track 4
Filename D:\LOSSLESS\!Classical Crossover\Alfie Boe\2007 Onward\04 - Alfie Boe - The Lord Is My Shepherd (Psalm 23).wav
Peak level 69.9 %
Extraction speed 2.4 X
Track quality 99.9 %
Test CRC F4817D76
Copy CRC F4817D76
Copy OK
Track 5
Filename D:\LOSSLESS\!Classical Crossover\Alfie Boe\2007 Onward\05 - Alfie Boe - I Vow to Thee My Country.wav
Peak level 46.0 %
Extraction speed 2.7 X
Track quality 99.9 %
Test CRC 63A4B11E
Copy CRC 63A4B11E
Copy OK
Track 6
Filename D:\LOSSLESS\!Classical Crossover\Alfie Boe\2007 Onward\06 - Alfie Boe - I Wonder as I Wander.wav
Peak level 33.2 %
Extraction speed 3.3 X
Track quality 100.0 %
Test CRC DB3AC9F1
Copy CRC DB3AC9F1
Copy OK
Track 7
Filename D:\LOSSLESS\!Classical Crossover\Alfie Boe\2007 Onward\07 - Alfie Boe - Dear Lord and Father of Mankind.wav
Peak level 99.7 %
Extraction speed 3.1 X
Track quality 99.9 %
Test CRC F5DD74D9
Copy CRC F5DD74D9
Copy OK
Track 8
Filename D:\LOSSLESS\!Classical Crossover\Alfie Boe\2007 Onward\08 - Alfie Boe - Balulalow (From Ceremony of Cards).wav
Peak level 51.6 %
Extraction speed 2.6 X
Track quality 99.9 %
Test CRC 5DB1DCC1
Copy CRC 5DB1DCC1
Copy OK
Track 9
Filename D:\LOSSLESS\!Classical Crossover\Alfie Boe\2007 Onward\09 - Alfie Boe - Ave Verum Corpus Natum.wav
Peak level 35.5 %
Extraction speed 3.7 X
Track quality 100.0 %
Test CRC 6DB345A1
Copy CRC 6DB345A1
Copy OK
Track 10
Filename D:\LOSSLESS\!Classical Crossover\Alfie Boe\2007 Onward\10 - Alfie Boe - Be Still My Soul (Finlandia Hymn).wav
Peak level 48.8 %
Extraction speed 3.9 X
Track quality 100.0 %
Test CRC 545D43FD
Copy CRC 545D43FD
Copy OK
Track 11
Filename D:\LOSSLESS\!Classical Crossover\Alfie Boe\2007 Onward\11 - Alfie Boe - Cujus Animam (From Stabat Mater).wav
Peak level 70.1 %
Extraction speed 4.2 X
Track quality 100.0 %
Test CRC 1BCAC7B2
Copy CRC 1BCAC7B2
Copy OK
Track 12
Filename D:\LOSSLESS\!Classical Crossover\Alfie Boe\2007 Onward\12 - Alfie Boe - You'll Never Walk Alone.wav
Peak level 99.8 %
Extraction speed 4.0 X
Track quality 100.0 %
Test CRC 0DEE0D83
Copy CRC 0DEE0D83
Copy OK
No errors occurred
End of status report
---- CUETools DB Plugin V2.1.6
[CTDB TOCID: 2grrMYJcy93FA8nXE3xw6r98jGc-] found
Submit result: already submitted
Track | CTDB Status
1 | (22/22) Accurately ripped
2 | (22/22) Accurately ripped
3 | (22/22) Accurately ripped
4 | (22/22) Accurately ripped
5 | (22/22) Accurately ripped
6 | (22/22) Accurately ripped
7 | (22/22) Accurately ripped
8 | (22/22) Accurately ripped
9 | (22/22) Accurately ripped
10 | (22/22) Accurately ripped
11 | (22/22) Accurately ripped
12 | (22/22) Accurately ripped
==== Log checksum 61D2FA86ACA789648099F9D1BBC0EFA0514A4E9E98C43411F583B638FEF184AE ====

Содержание индексной карты (.CUE)

REM GENRE Religious
REM DATE 2007
REM DISCID 8D0A220C
REM COMMENT "ExactAudioCopy v1.3"
PERFORMER "Alfie Boe"
TITLE "Onward"
REM COMPOSER ""
FILE "01 - Alfie Boe - A Living Prayer.wav" WAVE
TRACK 01 AUDIO
TITLE "A Living Prayer"
PERFORMER "Alfie Boe"
REM COMPOSER ""
INDEX 01 00:00:00
FILE "02 - Alfie Boe - Gaelic Blessing.wav" WAVE
TRACK 02 AUDIO
TITLE "Gaelic Blessing"
PERFORMER "Alfie Boe"
REM COMPOSER ""
INDEX 01 00:00:00
FILE "03 - Alfie Boe - Amazing Grace.wav" WAVE
TRACK 03 AUDIO
TITLE "Amazing Grace"
PERFORMER "Alfie Boe"
REM COMPOSER ""
INDEX 01 00:00:00
FILE "04 - Alfie Boe - The Lord Is My Shepherd (Psalm 23).wav" WAVE
TRACK 04 AUDIO
TITLE "The Lord Is My Shepherd (Psalm 23)"
PERFORMER "Alfie Boe"
REM COMPOSER ""
INDEX 01 00:00:00
FILE "05 - Alfie Boe - I Vow to Thee My Country.wav" WAVE
TRACK 05 AUDIO
TITLE "I Vow to Thee My Country"
PERFORMER "Alfie Boe"
REM COMPOSER ""
INDEX 01 00:00:00
FILE "06 - Alfie Boe - I Wonder as I Wander.wav" WAVE
TRACK 06 AUDIO
TITLE "I Wonder as I Wander"
PERFORMER "Alfie Boe"
REM COMPOSER ""
INDEX 01 00:00:00
FILE "07 - Alfie Boe - Dear Lord and Father of Mankind.wav" WAVE
TRACK 07 AUDIO
TITLE "Dear Lord and Father of Mankind"
PERFORMER "Alfie Boe"
REM COMPOSER ""
INDEX 01 00:00:00
FILE "08 - Alfie Boe - Balulalow (From Ceremony of Cards).wav" WAVE
TRACK 08 AUDIO
TITLE "Balulalow (From Ceremony of Cards)"
PERFORMER "Alfie Boe"
REM COMPOSER ""
INDEX 01 00:00:00
FILE "09 - Alfie Boe - Ave Verum Corpus Natum.wav" WAVE
TRACK 09 AUDIO
TITLE "Ave Verum Corpus Natum"
PERFORMER "Alfie Boe"
REM COMPOSER ""
INDEX 01 00:00:00
FILE "10 - Alfie Boe - Be Still My Soul (Finlandia Hymn).wav" WAVE
TRACK 10 AUDIO
TITLE "Be Still My Soul (Finlandia Hymn)"
PERFORMER "Alfie Boe"
REM COMPOSER ""
INDEX 01 00:00:00
FILE "11 - Alfie Boe - Cujus Animam (From Stabat Mater).wav" WAVE
TRACK 11 AUDIO
TITLE "Cujus Animam (From Stabat Mater)"
PERFORMER "Alfie Boe"
REM COMPOSER ""
INDEX 01 00:00:00
FILE "12 - Alfie Boe - You'll Never Walk Alone.wav" WAVE
TRACK 12 AUDIO
TITLE "You'll Never Walk Alone"
PERFORMER "Alfie Boe"
REM COMPOSER ""
INDEX 01 00:00:00

Скриншот спектра частот

Профиль [ЛС]
Показать сообщения:    

Текущее время: 01-Дек 02:43

Часовой пояс: UTC ± 0



Вы не можете начинать темы
Вы не можете отвечать на сообщения
Вы не можете редактировать свои сообщения
Вы не можете удалять свои сообщения
Вы не можете голосовать в опросах
Вы не можете прикреплять файлы к сообщениям
Вы не можете скачивать файлы