Статистика раздачи
Скачал: [ 1 ]
 
     
 
 

MAGNAT ®

Пол:
Мужской
Стаж:
2 года 6 месяцев
Сообщений:
11696

Откуда: Москва

Various Artists - 300% Classic In Rock
Жанр: Classical, Vocal, Rock, Trance
Страна-производитель диска: Bulgaria
Год издания диска: 1999
Издатель (лейбл): Braiton Universal Company
Номер по каталогу: BR 343
Страна: All World
Аудиокодек: FLAC
Тип рипа: tracks+.cue
Битрейт аудио: lossless
Продолжительность: 01:11:57
Источник: CD | ripped by шарик-off
Наличие сканов в содержимом раздачи: да
Треклист:
01. Wolf Hoffmann - Prelude (Bizet) (1:25)
02. Angelica - Un Bel Di (Puccini) (4:42)
03. Trance Opera - Habanera (Bizet) (6:00)
04. Danney Alkana - Beethoven '5th' (Beethoven) (3:21)
05. Vanessa Mae - Autumn. Allegro (Vivaldi) (5:22)
06. The Starlight Rock Orchestra - Rondo Alca Turca (Mozart) (3:48)
07. Montefiori Cocktail - Bolero (Ravel) (6:43)
08. Trance Opera - La Donne E Mobile (Verdi) (4:54)
09. Aria - Willow (Verdi) (6:38)
10. Richard Clayderman - Valse ?2 (Shostakovitch) (3:42)
11. Ruben Romero - Seguidilla (Bizet) (3:15)
12. Wolf Hoffmann - In The Hall Of The Mountain King (Grieg) (3:14)
13. Vanessa Mae - Spring. Allegro (I) (Vivaldi) (3:09)
14. Lorenco Arruga/Dave Lombardo - Summer La Tempesta D'estate (Vivaldi) (3:17)
15. The Starlight Rock Orchestra - Flight Of Bumble-Bee (Rimski-Korsakov) (4:24)
16. Danney Alkana - Sonata Cocertata (Paganini) (2:47)
17. Wolf Hoffmann - Arabian Dance (Tchaikovsky) (5:15)

Лог создания рипа

Exact Audio Copy V1.3 from 2. September 2016
EAC extraction logfile from 14. August 2019, 19:24
VA / 300% Classic In Rock
Used drive : ASUS DRW-24D5MT Adapter: 0 ID: 1
Read mode : Secure
Utilize accurate stream : Yes
Defeat audio cache : Yes
Make use of C2 pointers : No
Read offset correction : 6
Overread into Lead-In and Lead-Out : No
Fill up missing offset samples with silence : Yes
Delete leading and trailing silent blocks : No
Null samples used in CRC calculations : Yes
Used interface : Installed external ASPI interface
Gap handling : Appended to previous track
Used output format : User Defined Encoder
Selected bitrate : 896 kBit/s
Quality : High
Add ID3 tag : No
Command line compressor : C:\Program Files (x86)\Exact Audio Copy\Flac\flac.exe
Additional command line options : -8 -V -T "COMMENT=ripped by шарик-off" -T "TITLE=%title%" -T "ARTIST=%artist%" -T "ALBUMARTIST=%albumartist%" -T "ALBUM=%albumtitle%" -T "DATE=%year%" -T "TRACKNUMBER=%tracknr%" -T "TRACKTOTAL=%numtracks%" -T "GENRE=%genre%" -T "COMMENT=%comment%" -T "PERFORMER=%albuminterpret%" -T "COMPOSER=%composer%" %source% -o %dest%
TOC of the extracted CD
Track | Start | Length | Start sector | End sector
---------------------------------------------------------
1 | 0:00.00 | 1:25.08 | 0 | 6382
2 | 1:25.08 | 4:41.63 | 6383 | 27520
3 | 6:06.71 | 6:00.11 | 27521 | 54531
4 | 12:07.07 | 3:21.19 | 54532 | 69625
5 | 15:28.26 | 5:21.43 | 69626 | 93743
6 | 20:49.69 | 3:48.00 | 93744 | 110843
7 | 24:37.69 | 6:42.36 | 110844 | 141029
8 | 31:20.30 | 4:53.71 | 141030 | 163075
9 | 36:14.26 | 6:37.67 | 163076 | 192917
10 | 42:52.18 | 3:42.03 | 192918 | 209570
11 | 46:34.21 | 3:15.16 | 209571 | 224211
12 | 49:49.37 | 3:14.11 | 224212 | 238772
13 | 53:03.48 | 3:09.05 | 238773 | 252952
14 | 56:12.53 | 3:17.30 | 252953 | 267757
15 | 59:30.08 | 4:24.07 | 267758 | 287564
16 | 63:54.15 | 2:46.71 | 287565 | 300085
17 | 66:41.11 | 5:14.65 | 300086 | 323700
Track 1
Filename D:\01. Wolf Hoffman - Prelude (Bizet).wav
Pre-gap length 0:00:02.00
Peak level 98.8 %
Extraction speed 0.4 X
Track quality 99.6 %
Test CRC C75E41FE
Copy CRC C75E41FE
Track not present in AccurateRip database
Copy OK
Track 2
Filename D:\02. Angelica - Un Bel Di (Puccini).wav
Peak level 93.8 %
Extraction speed 0.6 X
Track quality 99.7 %
Test CRC E698BA0D
Copy CRC E698BA0D
Track not present in AccurateRip database
Copy OK
Track 3
Filename D:\03. Trance Opera - Habanera (Bizet).wav
Peak level 97.7 %
Extraction speed 1.3 X
Track quality 100.0 %
Test CRC 8AF7DCC0
Copy CRC 8AF7DCC0
Track not present in AccurateRip database
Copy OK
Track 4
Filename D:\04. Danney Alkana - Beethoven ''5th'' (Beethoven).wav
Peak level 99.8 %
Extraction speed 1.4 X
Track quality 100.0 %
Test CRC D06BB4A9
Copy CRC D06BB4A9
Track not present in AccurateRip database
Copy OK
Track 5
Filename D:\05. Vanessa Mae - Autumn. Allegro (Vivaldi).wav
Peak level 57.1 %
Extraction speed 1.5 X
Track quality 100.0 %
Test CRC CAFEE7D3
Copy CRC CAFEE7D3
Track not present in AccurateRip database
Copy OK
Track 6
Filename D:\06. The Starlight Rock Orchestra - Rondo Alca Turca (Mozart).wav
Peak level 100.0 %
Extraction speed 1.6 X
Track quality 100.0 %
Test CRC 6A87BF45
Copy CRC 6A87BF45
Track not present in AccurateRip database
Copy OK
Track 7
Filename D:\07. Montefiori Cocktail - Bolero (Ravel).wav
Peak level 99.9 %
Extraction speed 1.8 X
Track quality 100.0 %
Test CRC D29C9D11
Copy CRC D29C9D11
Track not present in AccurateRip database
Copy OK
Track 8
Filename D:\08. Trance Opera - La Donne E Mobile (Verdi).wav
Peak level 98.2 %
Extraction speed 1.8 X
Track quality 100.0 %
Test CRC 84F2A746
Copy CRC 84F2A746
Track not present in AccurateRip database
Copy OK
Track 9
Filename D:\09. Aria - Willow (Verdi).wav
Peak level 98.8 %
Extraction speed 2.0 X
Track quality 100.0 %
Test CRC 705AB977
Copy CRC 705AB977
Track not present in AccurateRip database
Copy OK
Track 10
Filename D:\10. Richard Clayderman - Valse ¹2 (Shostakovitch).wav
Peak level 99.6 %
Extraction speed 2.0 X
Track quality 100.0 %
Test CRC CAAEAEA1
Copy CRC CAAEAEA1
Track not present in AccurateRip database
Copy OK
Track 11
Filename D:\11. Ruben Romero - Seguidilla (Bizet).wav
Peak level 96.6 %
Extraction speed 1.7 X
Track quality 99.9 %
Test CRC 5504D9EF
Copy CRC 5504D9EF
Track not present in AccurateRip database
Copy OK
Track 12
Filename D:\12. Wolf Hoffmann - In The Hall Of The Mountain King (Grieg).wav
Peak level 96.6 %
Extraction speed 2.0 X
Track quality 100.0 %
Test CRC C9A970F7
Copy CRC C9A970F7
Track not present in AccurateRip database
Copy OK
Track 13
Filename D:\13. Vanessa Mae - Spring. Allegro (I) (Vivaldi).wav
Peak level 71.5 %
Extraction speed 2.1 X
Track quality 100.0 %
Test CRC 87508E74
Copy CRC 87508E74
Track not present in AccurateRip database
Copy OK
Track 14
Filename D:\14. Lorenco Arruga - Dave Lombardo.wav
Peak level 100.0 %
Extraction speed 2.1 X
Track quality 100.0 %
Test CRC D4978BD4
Copy CRC D4978BD4
Track not present in AccurateRip database
Copy OK
Track 15
Filename D:\15. The Starlight Rock Orchestra - Flight Of Bumble-Bee (Rimski-Korsakov).wav
Peak level 99.3 %
Extraction speed 2.3 X
Track quality 100.0 %
Test CRC CE54A0B5
Copy CRC CE54A0B5
Track not present in AccurateRip database
Copy OK
Track 16
Filename D:\16. Danney Alkana - Sonata Cocertata (Paganini).wav
Peak level 99.8 %
Extraction speed 1.8 X
Track quality 99.9 %
Test CRC 04BA9D0E
Copy CRC 04BA9D0E
Track not present in AccurateRip database
Copy OK
Track 17
Filename D:\17. Wolf Hoffmann - Arabian Dance (Tchaikovsky).wav
Peak level 98.8 %
Extraction speed 2.4 X
Track quality 100.0 %
Test CRC 6D24D74D
Copy CRC 6D24D74D
Track not present in AccurateRip database
Copy OK
None of the tracks are present in the AccurateRip database
No errors occurred
End of status report
==== Log checksum 216BE60ABAB7264E40EB773E1C5A0030BFA5D0C6C313FF86FAD7AA85ADB1583A ====

Содержание индексной карты (.CUE)

REM GENRE Classical Crossover
REM DATE 1999
REM DISCID 0F10DC11
REM COMMENT "ExactAudioCopy v1.3"
PERFORMER "Various Artists"
TITLE "300% Classic In Rock"
FILE "01. Wolf Hoffmann - Prelude (Bizet).wav" WAVE
TRACK 01 AUDIO
TITLE "Prelude (Bizet)"
PERFORMER "Wolf Hoffman"
INDEX 01 00:00:00
FILE "02. Angelica - Un Bel Di (Puccini).wav" WAVE
TRACK 02 AUDIO
TITLE "Un Bel Di (Puccini)"
PERFORMER "Angelica"
INDEX 01 00:00:00
FILE "03. Trance Opera - Habanera (Bizet).wav" WAVE
TRACK 03 AUDIO
TITLE "Habanera (Bizet)"
PERFORMER "Trance Opera"
INDEX 01 00:00:00
FILE "04. Danney Alkana - Beethoven ''5th'' (Beethoven).wav" WAVE
TRACK 04 AUDIO
TITLE "Beethoven '5th' (Beethoven)"
PERFORMER "Danney Alkana"
INDEX 01 00:00:00
FILE "05. Vanessa Mae - Autumn. Allegro (Vivaldi).wav" WAVE
TRACK 05 AUDIO
TITLE "Autumn. Allegro (Vivaldi)"
PERFORMER "Vanessa Mae"
INDEX 01 00:00:00
FILE "06. The Starlight Rock Orchestra - Rondo Alca Turca (Mozart).wav" WAVE
TRACK 06 AUDIO
TITLE "Rondo Alca Turca (Mozart)"
PERFORMER "The Starlight Rock Orchestra"
INDEX 01 00:00:00
FILE "07. Montefiori Cocktail - Bolero (Ravel).wav" WAVE
TRACK 07 AUDIO
TITLE "Bolero (Ravel)"
PERFORMER "Montefiori Cocktail"
INDEX 01 00:00:00
FILE "08. Trance Opera - La Donne E Mobile (Verdi).wav" WAVE
TRACK 08 AUDIO
TITLE "La Donne E Mobile (Verdi)"
PERFORMER "Trance Opera"
INDEX 01 00:00:00
FILE "09. Aria - Willow (Verdi).wav" WAVE
TRACK 09 AUDIO
TITLE "Willow (Verdi)"
PERFORMER "Aria"
INDEX 01 00:00:00
FILE "10. Richard Clayderman - Valse .2 (Shostakovitch).wav" WAVE
TRACK 10 AUDIO
TITLE "Valse .2 (Shostakovitch)"
PERFORMER "Richard Clayderman"
INDEX 01 00:00:00
FILE "11. Ruben Romero - Seguidilla (Bizet).wav" WAVE
TRACK 11 AUDIO
TITLE "Seguidilla (Bizet)"
PERFORMER "Ruben Romero"
INDEX 01 00:00:00
FILE "12. Wolf Hoffmann - In The Hall Of The Mountain King (Grieg).wav" WAVE
TRACK 12 AUDIO
TITLE "In The Hall Of The Mountain King (Grieg)"
PERFORMER "Wolf Hoffmann"
INDEX 01 00:00:00
FILE "13. Vanessa Mae - Spring. Allegro (I) (Vivaldi).wav" WAVE
TRACK 13 AUDIO
TITLE "Spring. Allegro (I) (Vivaldi)"
PERFORMER "Vanessa Mae"
INDEX 01 00:00:00
FILE "14. Lorenco Arruga-Dave Lombardo - Summer La Tempesta D'estate (Vivaldi).wav" WAVE
TRACK 14 AUDIO
TITLE "Summer La Tempesta D'estate (Vivaldi)"
PERFORMER "Lorenco Arruga/Dave Lombardo"
INDEX 01 00:00:00
FILE "15. The Starlight Rock Orchestra - Flight Of Bumble-Bee (Rimski-Korsakov).wav" WAVE
TRACK 15 AUDIO
TITLE "Flight Of Bumble-Bee (Rimski-Korsakov)"
PERFORMER "The Starlight Rock Orchestra"
INDEX 01 00:00:00
FILE "16. Danney Alkana - Sonata Cocertata (Paganini).wav" WAVE
TRACK 16 AUDIO
TITLE "Sonata Cocertata (Paganini)"
PERFORMER "Danney Alkana"
INDEX 01 00:00:00
FILE "17. Wolf Hoffmann - Arabian Dance (Tchaikovsky).wav" WAVE
TRACK 17 AUDIO
TITLE "Arabian Dance (Tchaikovsky)"
PERFORMER "Wolf Hoffmann"
INDEX 01 00:00:00
Профиль [ЛС]
Показать сообщения:    

Текущее время: 20-Окт 04:01

Часовой пояс: UTC ± 0



Вы не можете начинать темы
Вы не можете отвечать на сообщения
Вы не можете редактировать свои сообщения
Вы не можете удалять свои сообщения
Вы не можете голосовать в опросах
Вы не можете прикреплять файлы к сообщениям
Вы не можете скачивать файлы