Статистика раздачи
Скачал
 
     
 
 

MAGNAT ®

Пол:
Мужской
Стаж:
2 года 8 месяцев
Сообщений:
13012

Откуда: Москва

Sonia Wieder-Atherton - Little Girl Blue (From Nina Simone)
Жанр: Classical Crossover, Cello
Носитель: CD
Страна-производитель диска: Франция
Год издания диска: 2014
Издатель (лейбл): Naïve
Номер по каталогу: V 5376
Аудиокодек: FLAC
Тип рипа: tracks+.cue
Битрейт аудио: lossless
Продолжительность: 01:14:32
Источник (релизер): Moudougou
Наличие сканов в содержимом раздачи: нет
Треклист:
01. Black Swann (6:46)
02. Black Is the Colour of My True Love's Hair (3:28)
03. Little Girl Blue (5:36)
04. Fodder on My Wings (5:30)
05. Hey Buddy Bolden (3:18)
06. Images (3:57)
07. Brahms-Bach: Smucke Dich, O Liebe Seele, Op.122 No.5 (3:07)
08. You Can Have Him (6:35)
09. I Wish I Knew How It Would Feel to Be Free (5:25)
10. That's All I Want from You (3:35)
11. Brown Baby (5:50)
12. Stars (6:31)
13. Rachmaninoff: Sonata in G Minor, Op.19 (Andante) (6:33)
14. Come Ye (3:56)
15. Return Home (4:25)
Исполнители:
Sonia Wieder-Atherton - cello
Bruno Fontaine - piano
Laurent Kraif - percussion

Лог создания рипа

Exact Audio Copy V1.0 beta 3 from 29. August 2011
EAC extraction logfile from 15. February 2018, 20:12
Sonia Wieder-Atherton / Little Girl Blue - From Nina Simone
Used drive : MATSHITADVD-RAM UJ8G6 Adapter: 0 ID: 0
Read mode : Secure
Utilize accurate stream : Yes
Defeat audio cache : Yes
Make use of C2 pointers : No
Read offset correction : 103
Overread into Lead-In and Lead-Out : No
Fill up missing offset samples with silence : Yes
Delete leading and trailing silent blocks : No
Null samples used in CRC calculations : Yes
Used interface : Native Win32 interface for Win NT & 2000
Gap handling : Appended to previous track
Used output format : User Defined Encoder
Selected bitrate : 1024 kBit/s
Quality : High
Add ID3 tag : No
Command line compressor : C:\Program Files (x86)\Exact Audio Copy\Flac\flac.exe
Additional command line options : -8 -e -p -V -T "ARTIST=%artist%" -T "TITLE=%title%" -T "ALBUM=%albumtitle%" -T "DATE=%year%" -T "TRACKNUMBER=%tracknr%" -T "GENRE=%genre%" -T "PERFORMER=%albuminterpret%" -T "COMPOSER=%composer%" %haslyrics%--tag-from-file=LYRICS="%lyricsfile%"%haslyrics% -T "ALBUMARTIST=%albumartist%" -T "DISCNUMBER=%cdnumber%" -T "TOTALDISCS=%totalcds%" -T "TOTALTRACKS=%numtracks%" -T "COMMENT=%comment%" %source% -o %dest%
TOC of the extracted CD
Track | Start | Length | Start sector | End sector
---------------------------------------------------------
1 | 0:00.00 | 6:46.22 | 0 | 30471
2 | 6:46.22 | 3:27.53 | 30472 | 46049
3 | 10:14.00 | 5:35.50 | 46050 | 71224
4 | 15:49.50 | 5:30.10 | 71225 | 95984
5 | 21:19.60 | 3:18.12 | 95985 | 110846
6 | 24:37.72 | 3:57.03 | 110847 | 128624
7 | 28:35.00 | 3:06.47 | 128625 | 142621
8 | 31:41.47 | 6:35.25 | 142622 | 172271
9 | 38:16.72 | 5:25.05 | 172272 | 196651
10 | 43:42.02 | 3:35.35 | 196652 | 212811
11 | 47:17.37 | 5:50.30 | 212812 | 239091
12 | 53:07.67 | 6:31.13 | 239092 | 268429
13 | 59:39.05 | 6:33.35 | 268430 | 297939
14 | 66:12.40 | 3:55.42 | 297940 | 315606
15 | 70:08.07 | 4:25.27 | 315607 | 335508
Track 1
Filename C:\Users\Yann\Music\#EAC rips\Nouveau dossier (4)\01 - Black Swann.wav
Pre-gap length 0:00:02.00
Peak level 98.9 %
Extraction speed 2.7 X
Track quality 100.0 %
Test CRC 66F457EF
Copy CRC 66F457EF
Accurately ripped (confidence 9) [366E7081] (AR v2)
Copy OK
Track 2
Filename C:\Users\Yann\Music\#EAC rips\Nouveau dossier (4)\02 - Black Is The Colour Of My True Love's Hair.wav
Peak level 50.0 %
Extraction speed 2.8 X
Track quality 100.0 %
Test CRC E1F6D0A6
Copy CRC E1F6D0A6
Accurately ripped (confidence 9) [DD194D9D] (AR v2)
Copy OK
Track 3
Filename C:\Users\Yann\Music\#EAC rips\Nouveau dossier (4)\03 - Little Girl Blue.wav
Peak level 71.0 %
Extraction speed 2.6 X
Track quality 99.9 %
Test CRC DA85F5FD
Copy CRC DA85F5FD
Accurately ripped (confidence 9) [33E7F30F] (AR v2)
Copy OK
Track 4
Filename C:\Users\Yann\Music\#EAC rips\Nouveau dossier (4)\04 - Fodder On My Wings.wav
Peak level 41.8 %
Extraction speed 3.5 X
Track quality 100.0 %
Test CRC 472E4B7D
Copy CRC 472E4B7D
Accurately ripped (confidence 9) [58D46087] (AR v2)
Copy OK
Track 5
Filename C:\Users\Yann\Music\#EAC rips\Nouveau dossier (4)\05 - Hey Buddy Bolden.wav
Peak level 98.6 %
Extraction speed 3.4 X
Track quality 100.0 %
Test CRC A45D553B
Copy CRC A45D553B
Accurately ripped (confidence 9) [65499693] (AR v2)
Copy OK
Track 6
Filename C:\Users\Yann\Music\#EAC rips\Nouveau dossier (4)\06 - Images.wav
Peak level 39.2 %
Extraction speed 2.8 X
Track quality 99.9 %
Test CRC E0D4D143
Copy CRC E0D4D143
Accurately ripped (confidence 9) [84F4B125] (AR v2)
Copy OK
Track 7
Filename C:\Users\Yann\Music\#EAC rips\Nouveau dossier (4)\07 - Brahms-Bach- Smucke Dich, O Liebe Seele, Op. 122 No. 5.wav
Peak level 33.4 %
Extraction speed 3.6 X
Track quality 100.0 %
Test CRC DC4E209E
Copy CRC DC4E209E
Accurately ripped (confidence 9) [FFC75075] (AR v2)
Copy OK
Track 8
Filename C:\Users\Yann\Music\#EAC rips\Nouveau dossier (4)\08 - You Can Have Him.wav
Peak level 68.7 %
Extraction speed 4.0 X
Track quality 100.0 %
Test CRC E5C33E77
Copy CRC E5C33E77
Accurately ripped (confidence 9) [36B483B7] (AR v2)
Copy OK
Track 9
Filename C:\Users\Yann\Music\#EAC rips\Nouveau dossier (4)\09 - I Wish I Knew How It Would Feel To Be Free.wav
Peak level 89.1 %
Extraction speed 3.0 X
Track quality 99.9 %
Test CRC 82601FD5
Copy CRC 82601FD5
Accurately ripped (confidence 9) [5D569A95] (AR v2)
Copy OK
Track 10
Filename C:\Users\Yann\Music\#EAC rips\Nouveau dossier (4)\10 - That's All I Want From You.wav
Peak level 51.0 %
Extraction speed 3.1 X
Track quality 99.9 %
Test CRC E6BF8265
Copy CRC E6BF8265
Accurately ripped (confidence 9) [1361AAB4] (AR v2)
Copy OK
Track 11
Filename C:\Users\Yann\Music\#EAC rips\Nouveau dossier (4)\11 - Brown Baby.wav
Peak level 47.9 %
Extraction speed 4.8 X
Track quality 100.0 %
Test CRC CA524B76
Copy CRC CA524B76
Accurately ripped (confidence 9) [61A34640] (AR v2)
Copy OK
Track 12
Filename C:\Users\Yann\Music\#EAC rips\Nouveau dossier (4)\12 - Stars.wav
Peak level 78.7 %
Extraction speed 4.8 X
Track quality 100.0 %
Test CRC C90D3606
Copy CRC C90D3606
Accurately ripped (confidence 9) [84600DDF] (AR v2)
Copy OK
Track 13
Filename C:\Users\Yann\Music\#EAC rips\Nouveau dossier (4)\13 - Rachmaninoff- Sonata In G Minor, Op. 19 (andante).wav
Peak level 83.3 %
Extraction speed 5.2 X
Track quality 100.0 %
Test CRC 10217F57
Copy CRC 10217F57
Accurately ripped (confidence 9) [98722913] (AR v2)
Copy OK
Track 14
Filename C:\Users\Yann\Music\#EAC rips\Nouveau dossier (4)\14 - Come Ye.wav
Peak level 99.9 %
Extraction speed 5.1 X
Track quality 100.0 %
Test CRC 8D061064
Copy CRC 8D061064
Accurately ripped (confidence 9) [8A2F95C0] (AR v2)
Copy OK
Track 15
Filename C:\Users\Yann\Music\#EAC rips\Nouveau dossier (4)\15 - Return Home.wav
Peak level 97.9 %
Extraction speed 5.2 X
Track quality 100.0 %
Test CRC 7B1A7F6D
Copy CRC 7B1A7F6D
Accurately ripped (confidence 9) [261956F2] (AR v2)
Copy OK
All tracks accurately ripped
No errors occurred
End of status report
---- CUETools DB Plugin V2.1.3
[CTDB TOCID: Sp2gW4zpV8xpwgQbNGfd3LnVGgY-] found, Submit result: already submitted
[36687ef3] (11/11) Accurately ripped
==== Log checksum A05E68B0587C8276BA526BD93BF1C2B86FB61B089432ABB7180AF62A837E45A0 ====

Содержание индексной карты (.CUE)

REM GENRE Classical
REM DATE 2014
REM DISCID E511790F
REM COMMENT "ExactAudioCopy v1.0b3"
PERFORMER "Sonia Wieder-Atherton"
TITLE "Little Girl Blue (From Nina Simone)"
FILE "01 - Black Swann.wav" WAVE
TRACK 01 AUDIO
TITLE "Black Swann"
PERFORMER "Sonia Wieder-Atherton"
INDEX 01 00:00:00
FILE "02 - Black Is the Colour of My True Love's Hair.wav" WAVE
TRACK 02 AUDIO
TITLE "Black Is the Colour of My True Love's Hair"
PERFORMER "Sonia Wieder-Atherton"
INDEX 01 00:00:00
FILE "03 - Little Girl Blue.wav" WAVE
TRACK 03 AUDIO
TITLE "Little Girl Blue"
PERFORMER "Sonia Wieder-Atherton"
INDEX 01 00:00:00
FILE "04 - Fodder on My Wings.wav" WAVE
TRACK 04 AUDIO
TITLE "Fodder on My Wings"
PERFORMER "Sonia Wieder-Atherton"
INDEX 01 00:00:00
FILE "05 - Hey Buddy Bolden.wav" WAVE
TRACK 05 AUDIO
TITLE "Hey Buddy Bolden"
PERFORMER "Sonia Wieder-Atherton"
INDEX 01 00:00:00
FILE "06 - Images.wav" WAVE
TRACK 06 AUDIO
TITLE "Images"
PERFORMER "Sonia Wieder-Atherton"
INDEX 01 00:00:00
FILE "07 - Brahms-Bach- Smucke Dich, O Liebe Seele, Op.122 No.5.wav" WAVE
TRACK 07 AUDIO
TITLE "Brahms-Bach: Smucke Dich, O Liebe Seele, Op.122 No.5"
PERFORMER "Sonia Wieder-Atherton"
INDEX 01 00:00:00
FILE "08 - You Can Have Him.wav" WAVE
TRACK 08 AUDIO
TITLE "You Can Have Him"
PERFORMER "Sonia Wieder-Atherton"
INDEX 01 00:00:00
FILE "09 - I Wish I Knew How It Would Feel to Be Free.wav" WAVE
TRACK 09 AUDIO
TITLE "I Wish I Knew How It Would Feel to Be Free"
PERFORMER "Sonia Wieder-Atherton"
INDEX 01 00:00:00
FILE "10 - That's All I Want from You.wav" WAVE
TRACK 10 AUDIO
TITLE "That's All I Want from You"
PERFORMER "Sonia Wieder-Atherton"
INDEX 01 00:00:00
FILE "11 - Brown Baby.wav" WAVE
TRACK 11 AUDIO
TITLE "Brown Baby"
PERFORMER "Sonia Wieder-Atherton"
INDEX 01 00:00:00
FILE "12 - Stars.wav" WAVE
TRACK 12 AUDIO
TITLE "Stars"
PERFORMER "Sonia Wieder-Atherton"
INDEX 01 00:00:00
FILE "13 - Rachmaninoff- Sonata in G Minor, Op.19 (Andante).wav" WAVE
TRACK 13 AUDIO
TITLE "Rachmaninoff: Sonata in G Minor, Op.19 (Andante)"
PERFORMER "Sonia Wieder-Atherton"
INDEX 01 00:00:00
FILE "14 - Come Ye.wav" WAVE
TRACK 14 AUDIO
TITLE "Come Ye"
PERFORMER "Sonia Wieder-Atherton"
INDEX 01 00:00:00
FILE "15 - Return Home.wav" WAVE
TRACK 15 AUDIO
TITLE "Return Home"
PERFORMER "Sonia Wieder-Atherton"
INDEX 01 00:00:00

Отчет CUETools

[CUETools log; Date: 23.07.2019 21:46:48; Version: 2.1.6]
[CTDB TOCID: Sp2gW4zpV8xpwgQbNGfd3LnVGgY-] found.
Track | CTDB Status
1 | (14/14) Accurately ripped
2 | (14/14) Accurately ripped
3 | (14/14) Accurately ripped
4 | (14/14) Accurately ripped
5 | (14/14) Accurately ripped
6 | (14/14) Accurately ripped
7 | (14/14) Accurately ripped
8 | (14/14) Accurately ripped
9 | (14/14) Accurately ripped
10 | (14/14) Accurately ripped
11 | (14/14) Accurately ripped
12 | (14/14) Accurately ripped
13 | (14/14) Accurately ripped
14 | (14/14) Accurately ripped
15 | (14/14) Accurately ripped
[AccurateRip ID: 0028a6cc-01cc35e4-e511790f] found.
Track [ CRC | V2 ] Status
01 [f3d25203|366e7081] (00+10/10) Accurately ripped
02 [d467fd4f|dd194d9d] (00+10/10) Accurately ripped
03 [7ddf7177|33e7f30f] (00+10/10) Accurately ripped
04 [a4a1f989|58d46087] (00+10/10) Accurately ripped
05 [47bc1e27|65499693] (00+10/10) Accurately ripped
06 [68e154a5|84f4b125] (00+10/10) Accurately ripped
07 [ed53c0e5|ffc75075] (00+10/10) Accurately ripped
08 [5a2b8844|36b483b7] (00+10/10) Accurately ripped
09 [b7f1ab95|5d569a95] (00+10/10) Accurately ripped
10 [e9295b00|1361aab4] (00+10/10) Accurately ripped
11 [e0d9889c|61a34640] (00+10/10) Accurately ripped
12 [00fbc9df|84600ddf] (00+10/10) Accurately ripped
13 [3264802e|98722913] (00+10/10) Accurately ripped
14 [23bde342|8a2f95c0] (00+10/10) Accurately ripped
15 [0131bd28|261956f2] (00+10/10) Accurately ripped
Track Peak [ CRC32 ] [W/O NULL] [ LOG ]
-- 99,9 [E1D1E6B4] [DF39B14C]
01 98,9 [66F457EF] [6441D263] CRC32
02 50,0 [E1F6D0A6] [3D17B416] CRC32
03 71,0 [DA85F5FD] [213D5ABF] CRC32
04 41,8 [472E4B7D] [AE8211C5] CRC32
05 98,6 [A45D553B] [103EB816] CRC32
06 39,2 [E0D4D143] [32581A01] CRC32
07 33,4 [DC4E209E] [12B8A299] CRC32
08 68,7 [E5C33E77] [F0CF4886] CRC32
09 89,1 [82601FD5] [24F59E5A] CRC32
10 51,0 [E6BF8265] [C18D5F87] CRC32
11 47,9 [CA524B76] [9E6DE56B] CRC32
12 78,7 [C90D3606] [16693DF9] CRC32
13 83,3 [10217F57] [03D29953] CRC32
14 99,9 [8D061064] [F4537568] CRC32
15 97,9 [7B1A7F6D] [D52AB520] CRC32

Review by Jack Goodstein

Arguably no instrument other than cello would be more perfect for a salute to legendary singer Nina Simone (it has that Simone sound); but put that cello in the hands of Sonia Wieder Atherton and there is no argument. She and her cello are nothing short of perfection. Her tribute to Simone, Little Girl Blue: From Nina Simone, features some of the most intensely passionate music you are likely to hear this year, indeed the kind of intense passion that defined Simone and her music.
As the cellist describes in the little booklet that accompanies the album, she “delved deep” into Simone’s music, “her repertory, her arrangements, her harmonic universe, and her story too.” It is as though she is channeling the singer: “This project is about offering her the voice of my cello… Perhaps if I abandon myself to her, she will take me to the secret links between her and the composers she loved above all else.” The album is an attempt to create a mystical union, an attempt that hits the mark. Close your eyes and Atherton’s cello embodies not one, but the many voices of the unique singer. It is a bravura performance worthy of the singer she honors.
Playing with pianist Bruno Fontaine and percussionist Laurent Kraif, Atherton runs through a 15-track program that highlights the range of Simone’s musical passions. And if she omits a classic tune or two, with the wealth she does offer, it would be absurd to complain.
The set includes four of Simone’s original compositions: “Fodder on My Wings,” Images,” “Come Ye” and “Return Home.” It adds jazz classics closely associated with Simone, tunes like Duke Ellington’s “Hey Buddy Bolden,” Oscar Brown, Jr.’s “Brown Baby,” and of course the tune that gives the album its title. There is the gospel flavored freedom anthem “I Wish I Knew It Would Feel to Be Free.” There are also nods to the singer’s classical interests with Gian Carlo Menotti’s “Black Swan,” an andante from the Rachmaninoff “Sonata in G minor,” and a Bach choral prelude by way of Brahms.
But it is not merely Atherton’s repertoire choices that make the album. She plumbs the depths of that repertoire with a skillful musicality, working magic with Fontaine and Kraif. They are a formidable trio and their work demands attention.
Профиль [ЛС]
Показать сообщения:    

Текущее время: 01-Дек 03:08

Часовой пояс: UTC ± 0



Вы не можете начинать темы
Вы не можете отвечать на сообщения
Вы не можете редактировать свои сообщения
Вы не можете удалять свои сообщения
Вы не можете голосовать в опросах
Вы не можете прикреплять файлы к сообщениям
Вы не можете скачивать файлы