Статистика раздачи
Размер:  2,46 GB   |    Зарегистрирован:  6 месяцев 23 дня   |    Скачан:  0 раз
Сидов:  79  [  0 KB/s  ]   Личеров:  4  [  0 KB/s  ]  
   
 

Гость ®

Пол:
Не указан

Моя любимая мишень
Год выпуска: 2018
Производство: Феникс - Фильм
Жанр: мелодрама
Продолжительность: ~00:48:00 серия
Субтитры: нет
Режиссёр: Дмитрий Магонов
В ролях: Ирина Шеянова, Максим Щёголев, Игорь Стам, Ольга Плешкова, Игорь Гудеев, Анастасия Чуева, Константин Тополага, Андрей Харыбин, Наталья Батрак
Описание: Руслан Донской, бывший спортсмен, чемпион России по пулевой стрельбе среди юниоров и его любимая жена Мария давно вместе, скоро у них родится малыш. Для Руслана эта новость оборачивается ударом – он недавно потерял свой бизнес и влез в долги, поэтому в ужасе понимает, что не сможет прокормить свою семью. И из-за кредитов, взятых на развитие дела, Руслан вместе с беременной женой оказывается в съемной однокомнатной хрущевке. На помощь приходит старый приятель - Руслан получает заманчивое, но опасное предложение, которое в корне меняет его жизнь… Любимая жена готова поддерживать мужа и в горе, и в радости, ради любви она даже готова нарушить закон и пойти против общества. Уцелеет ли Руслан в этой гонке на выживание? Смогут ли они сохранить семью, когда на кону стоит жизнь и благополучие будущего ребенка?

Реклама: Нет.
Кино-театр
Все раздачи сериала
Sample
Качество: WEBRip - Files-x
Формат: AVI
Видео кодек: XviD
Аудио кодек: AC3
Видео: 720x400 (1.80:1), 25 fps, XviD build 73 ~1600 kbps avg, 0.222 bit/pixel
Аудио: 48.0 kHz, AC3 Dolby Digital, 2/0 (L,R) ch, ~ 192 kbps

MI

General
Complete name : D:\Моя любимая мишень .(2018).WEB-DLRip\01.Моя любимая мишень.(2018).WEB-DLRip.Files-x.avi
Format : AVI
Format/Info : Audio Video Interleave
File size : 626 MiB
Duration : 48 min 36 s
Overall bit rate : 1 802 kb/s
Writing application : VirtualDubMod 1.5.10.3 | www.virtualdub-fr.org || (build 2550/release)
Writing library : VirtualDubMod build 2550/release
Video
ID : 0
Format : MPEG-4 Visual
Format profile : Advanced Simple@L5
Format settings : BVOP1 / Custom Matrix
Format settings, BVOP : 1
Format settings, QPel : No
Format settings, GMC : No warppoints
Format settings, Matrix : Custom
Codec ID : XVID
Codec ID/Hint : XviD
Duration : 48 min 36 s
Bit rate : 1 600 kb/s
Width : 720 pixels
Height : 400 pixels
Display aspect ratio : 16:9
Frame rate : 25.000 FPS
Color space : YUV
Chroma subsampling : 4:2:0
Bit depth : 8 bits
Scan type : Progressive
Compression mode : Lossy
Bits/(Pixel*Frame) : 0.222
Stream size : 556 MiB (89%)
Writing library : XviD 73
Audio
ID : 1
Format : AC-3
Format/Info : Audio Coding 3
Codec ID : 2000
Duration : 48 min 36 s
Bit rate mode : Constant
Bit rate : 192 kb/s
Channel(s) : 2 channels
Channel positions : Front: L R
Sampling rate : 48.0 kHz
Frame rate : 31.250 FPS (1536 SPF)
Bit depth : 16 bits
Compression mode : Lossy
Stream size : 66.8 MiB (11%)
Alignment : Split accross interleaves
Interleave, duration : 40 ms (1.00 video frame)
Interleave, preload duratio : 500 ms
Service kind : Complete Main

Скриншоты


[cybertorrent.ru].t1417.torrent 
Торрент: Зарегистрирован [ 2019-03-24 17:09 ] · 0FEF7AC2F7648682C47325CCBF5662B4FC15D158

Скачать .torrent

Скачать

13 KB

Статус: проверено
Скачан: 0 раз
Размер: 2,46 GB
terms.php
Показать сообщения:    

Текущее время: 17-Окт 01:01

Часовой пояс: UTC ± 0



Вы не можете начинать темы
Вы не можете отвечать на сообщения
Вы не можете редактировать свои сообщения
Вы не можете удалять свои сообщения
Вы не можете голосовать в опросах
Вы не можете прикреплять файлы к сообщениям
Вы можете скачивать файлы