Статистика раздачи
Размер:  8,03 GB   |    Зарегистрирован:  10 месяцев   |    Скачан:  0 раз

Полного источника не было: Никогда

Личеров:  8  [  0 KB/s  ]  
 
   
 
 

AleXa ®

Пол:
Не указан
Стаж:
10 месяцев
Сообщений:
51

Футурама / Futurama [Season 6]«The future is here!»- Год выпуска: 2010
Страна: США | Comedy Central
Жанр: мультфильм, комедия
Продолжительность: ~00:22 x13 | 13 x800 МБ
Перевод: Профессиональный (многоголосый закадровый) - 2x2, LostFilm, VO-Production, Кубик в Кубе
Оригинальная дорожка: Английская
Субтитры: русские, английские-Автор идеи: Мэтт Гроунинг
В ролях: Филипп Джей Фрай (Фрай), Туранга Лила (Лила), Бендер Бендинг Родригес (Бендер), Хьюберт Фарнсворт (Профессор), Гермес Конрад, Джон Ди Зойдберг (Доктор Зойдберг), Эми Вонг-Описание: Сериал начинается с того, что разносчик пиццы из Нью-Йорка Филипп Джей Фрай случайно, как это кажется на первый взгляд, был заморожен в криогенной камере ровно в 00 часов 00 минут 00 секунд 1 января 2000 года. Он был разморожен тысячу лет спустя, 31 декабря 2999 года, и обнаружил себя в городе будущего Нью-Нью-Йорке. Знакомясь со своей будущей коллегой Турангой Лилой, Фрай пытается избежать принудительного назначения на работу курьером, кем он и был в прошлой жизни, и внедрения ему карьерного чипа — микросхемы, вшиваемой под кожу и определяющей род занятий своего носителя. Лила, в это время работающая инспектором по раздаче профессий, догоняя Фрая, чтобы вживить ему чип, в результате выслушивания речей Фрая о его прошлой никчемной жизни курьером, отказывается от работы инспектора, которая ей не по душе, и вместе они находят очень дальнего потомка Фрая (его пра-пра-пра-…-пра-внучатого племянника) Хьюберта Фарнсворта — маразматичного 160-летнего гениального ученого-склеротика, который берет их на работу в свою небольшую компанию «Межпланетный экспресс», занимающуюся межгалактическими грузоперевозками, на должность курьера. «Межпланетный экспресс» — это маленький бизнес профессора, окупающий его гениальные, но иногда весьма сомнительные исследования и изобретения.-Релиз подготовил: uxTuaHgp
Все раздачи сериала-Качество: BDRip 720p (EbP)
Формат: MKV
Видео кодек: H.264
Аудио кодек: AC3
Видео: 1280x720, 23.976 fps, 2,5-3,2Mbps, 0.145 bit/pixel
Аудио #1: AC3 2.0, 48 KHz, 192 kbps |2x2|
Аудио #2: AC3 2.0, 48 KHz, 192 kbps |LostFilm|
Аудио #3: AC3 2.0, 48 KHz, 192 kbps |Кубик в Кубе|
Аудио #4: AC3 2.0, 48 KHz, 192 kbps |VO-Production|
Аудио #5: AC3 5.1, 48 KHz, 640 kbps |Оригинальная дорожка|-

Список серий

  • Rebirth
  • In-A-Gadda-Da-Leela
  • Attack of the Killer App
  • Proposition Infinity
  • The Duh-Vinci Code
  • Lethal Inspection
  • The Late Philip J. Fry
  • That Darn Katz!
  • A Clockwork Origin
  • The Prisoner of Benda
  • Lrrreconcilable Ndndifferences
  • The Mutants Are Revolting
  • The Futurama Holiday Spectacular
  • MI

    Код:Format : Matroska
    File size : 716 MiB
    Duration : 21mn 40s
    Overall bit rate : 4 618 Kbps
    Movie name : Release by uxTuaHgp
    Encoded date : UTC 2011-04-19 12:57:29
    Writing application : mkvmerge v2.5.3 ('Boogie') built on Mar 7 2009 15:00:41
    Writing library : libebml v0.7.7 + libmatroska v0.8.1
    Video
    ID : 1
    Format : AVC
    Format/Info : Advanced Video Codec
    Format profile : High@L4.1
    Format settings, CABAC : Yes
    Format settings, ReFrames : 9 frames
    Format settings, GOP : M=1, N=48
    Codec ID : V_MPEG4/ISO/AVC
    Duration : 21mn 40s
    Bit rate : 3 200 Kbps
    Width : 1 280 pixels
    Height : 720 pixels
    Display aspect ratio : 16:9
    Frame rate : 23.976 fps
    Color space : YUV
    Chroma subsampling : 4:2:0
    Bit depth : 8 bits
    Scan type : Progressive
    Bits/(Pixel*Frame) : 0.145
    Stream size : 483 MiB (68%)
    Title : Futurama S06 E01 Rebirth - Release by uxTuaHgp
    Writing library : x264 core 112 r1867 22bfd31
    Encoding settings : cabac=1 / ref=9 / deblock=1:-3:-3 / analyse=0x3:0x133 / me=tesa / subme=10 / psy=1 / psy_rd=1.10:0.05 / mixed_ref=1 / me_range=64 / chroma_me=1 / trellis=2 / 8x8dct=1 / cqm=0 / deadzone=21,11 / fast_pskip=0 / chroma_qp_offset=-3 / threads=8 / sliced_threads=0 / nr=0 / decimate=0 / interlaced=0 / constrained_intra=0 / bframes=12 / b_pyramid=2 / b_adapt=2 / b_bias=0 / direct=3 / weightb=1 / open_gop=0 / weightp=2 / keyint=250 / keyint_min=23 / scenecut=40 / intra_refresh=0 / rc=2pass / mbtree=0 / bitrate=3200 / ratetol=1.0 / qcomp=0.60 / qpmin=0 / qpmax=51 / qpstep=4 / cplxblur=20.0 / qblur=0.5 / ip_ratio=1.20 / pb_ratio=1.10 / aq=2:0.90
    Language : English
    Audio #1
    ID : 2
    Format : AC-3
    Format/Info : Audio Coding 3
    Mode extension : CM (complete main)
    Codec ID : A_AC3
    Duration : 21mn 40s
    Bit rate mode : Constant
    Bit rate : 192 Kbps
    Channel(s) : 2 channels
    Channel positions : Front: L R
    Sampling rate : 48.0 KHz
    Bit depth : 16 bits
    Compression mode : Lossy
    Stream size : 29.8 MiB (4%)
    Title : AC3 2.0 @ 192 kbps [2x2]
    Language : Russian
    Audio #2
    ID : 3
    Format : AC-3
    Format/Info : Audio Coding 3
    Mode extension : CM (complete main)
    Codec ID : A_AC3
    Duration : 21mn 40s
    Bit rate mode : Constant
    Bit rate : 192 Kbps
    Channel(s) : 2 channels
    Channel positions : Front: L R
    Sampling rate : 48.0 KHz
    Bit depth : 16 bits
    Compression mode : Lossy
    Stream size : 29.8 MiB (4%)
    Title : AC3 2.0 @ 192 kbps [LostFilm]
    Language : Russian
    Audio #3
    ID : 4
    Format : AC-3
    Format/Info : Audio Coding 3
    Mode extension : CM (complete main)
    Codec ID : A_AC3
    Duration : 21mn 40s
    Bit rate mode : Constant
    Bit rate : 192 Kbps
    Channel(s) : 2 channels
    Channel positions : Front: L R
    Sampling rate : 48.0 KHz
    Bit depth : 16 bits
    Compression mode : Lossy
    Stream size : 29.8 MiB (4%)
    Title : AC3 2.0 @ 192 kbps [Кубик в Кубе]
    Language : Russian
    Audio #4
    ID : 5
    Format : AC-3
    Format/Info : Audio Coding 3
    Mode extension : CM (complete main)
    Codec ID : A_AC3
    Duration : 21mn 40s
    Bit rate mode : Constant
    Bit rate : 192 Kbps
    Channel(s) : 2 channels
    Channel positions : Front: L R
    Sampling rate : 48.0 KHz
    Bit depth : 16 bits
    Compression mode : Lossy
    Stream size : 29.8 MiB (4%)
    Title : AC3 2.0 @ 192 kbps [VO-Production]
    Language : Russian
    Audio #5
    ID : 6
    Format : AC-3
    Format/Info : Audio Coding 3
    Mode extension : CM (complete main)
    Codec ID : A_AC3
    Duration : 21mn 40s
    Bit rate mode : Constant
    Bit rate : 640 Kbps
    Channel(s) : 6 channels
    Channel positions : Front: L C R, Side: L R, LFE
    Sampling rate : 48.0 KHz
    Bit depth : 16 bits
    Compression mode : Lossy
    Stream size : 99.2 MiB (14%)
    Title : AC3 5.1 @ 640 kbps
    Language : English
    Text #1
    ID : 7
    Format : UTF-8
    Codec ID : S_TEXT/UTF8
    Codec ID/Info : UTF-8 Plain Text
    Language : English
    Text #2
    ID : 8
    Format : UTF-8
    Codec ID : S_TEXT/UTF8
    Codec ID/Info : UTF-8 Plain Text
    Language : Russian
    Menu
    00:00:00.000 : :00:00:00.000
    00:07:12.557 : :00:07:12.557
    00:14:26.824 : :00:14:26.824
    00:21:07.475 : :00:21:07.475

    Скриншоты

    [cybertorrent.ru].t1418.torrent 
    Торрент: Зарегистрирован [ 2018-02-16 03:41 ] · 10FCBA027A2C1AD6ADA2AC9DF375EAD494A82FD0

    Скачать .torrent

    Скачать

    42 KB

    Статус: проверено
    Скачан: 0 раз
    Размер: 8,03 GB
    Профиль [ЛС]
    Показать сообщения:    

    Текущее время: 16-Дек 08:20

    Часовой пояс: UTC ± 0



    Вы не можете начинать темы
    Вы не можете отвечать на сообщения
    Вы не можете редактировать свои сообщения
    Вы не можете удалять свои сообщения
    Вы не можете голосовать в опросах
    Вы не можете прикреплять файлы к сообщениям
    Вы можете скачивать файлы
    Torrents24.ru открытый BitTorrent Torrents24.pl открытый BitTorrent CyberTorrent.ru открытый BitTorrent BtList.ru рейтинг BitTorrent трекеров Яндекс.Метрика