Статистика раздачи
Размер:  1,46 GB   |    Зарегистрирован:  6 месяцев 28 дней   |    Скачан:  0 раз
Сидов:  35  [  0 KB/s  ]   Личеров:  3  [  0 KB/s  ]  
   
 

Гость ®

Пол:
Не указан

Охотники за душами / Soul Hunters
Страна: США
Жанр: боевик, триллер, боевые искусства
Год выпуска: 2019
Продолжительность: 01:41:16-Перевод: Любительский (многоголосый закадровый) | HDRezka Studio
Субтитры: нет
Оригинальная аудиодорожка: нет-Режиссер: Адриан Асеведо-Смит / Adrian Acevedo-Smith, Артуро Асеведо-Смит / Arturo Acevedo-Smith-В ролях: Зак Шерер, Франциска Шисслер, Дэвид Джош Лоуренс, Николай Александров, Келси Джонсон, Тайлер Коул, Арамис Мерлин, Дэвид Сауседо, Ками Д. Брудер, Мишель Александрия-Описание: Похищение человека, которое транслируют в прямом эфире в социальных сетях, внезапно превращается в разбирательство над судьей, который вынес неверный вердикт в одном из своих прошлых уголовных дел. Однако на этот раз судья становится подсудимым, а роль судьи и присяжных исполняют зрители прямой трансляции и именно им предстоит решать, останется ли он в живых.- -Качество видео: WEB-DLRip
Формат видео: AVI
Видео: 704x400 (1.76:1), 23.976 fps, XviD build 73 ~1856 kbps avg, 0.28 bit/pixel
Аудио: 48 kHz, AC3 Dolby Digital, 2/0 (L,R) ch, ~192 kbps-[box]Сэмпл[/box]-

MediaInfo

Код:Формат : AVI
Формат/Информация : Audio Video Interleave
Размер файла : 1,46 Гбайт
Продолжительность : 1 ч. 41 м.
Общий поток : 2058 Кбит/сек
Программа кодирования : VirtualDubMod 1.5.10.3 | www.virtualdub-fr.org || (build 2550/release)
Библиотека кодирования : VirtualDubMod build 2550/release
Видео
Идентификатор : 0
Формат : MPEG-4 Visual
Профиль формата : Advanced Simple@L5
Настройки формата : BVOP1 / Custom Matrix
Параметр BVOP формата : 1
Параметр QPel формата : Нет
Параметр GMC формата : Без точки перехода
Параметр матрицы формата : Выборочная
Идентификатор кодека : XVID
Идентификатор кодека/Подсказка : XviD
Продолжительность : 1 ч. 41 м.
Битрейт : 1856 Кбит/сек
Ширина : 704 пикселя
Высота : 400 пикселей
Соотношение сторон : 16:9
Частота кадров : 23,976 (24000/1001) кадра/сек
Цветовое пространство : YUV
Субдискретизация насыщенности : 4:2:0
Битовая глубина : 8 бит
Тип развёртки : Прогрессивная
Метод сжатия : С потерями
Бит/(Пиксели*Кадры) : 0.275
Размер потока : 1,31 Гбайт (90%)
Библиотека кодирования : XviD 73
Аудио
Идентификатор : 1
Формат : AC-3
Формат/Информация : Audio Coding 3
Коммерческое название : Dolby Digital
Идентификатор кодека : 2000
Продолжительность : 1 ч. 41 м.
Вид битрейта : Постоянный
Битрейт : 192 Кбит/сек
Каналы : 2 канала
Channel layout : L R
Частота : 48,0 КГц
Частота кадров : 31,250 кадров/сек (1536 SPF)
Битовая глубина : 16 бит
Метод сжатия : С потерями
Размер потока : 139 Мбайт (9%)
Выравнивание : Разделение по промежуткам
Продолжительность промежутка : 42 мс. (1,00 видеокадр)
Время предзагрузки промежутка : 500 мс.
ServiceKind/String : Complete Main

Скриншоты


[cybertorrent.ru].t1425.torrent 
Торрент: Зарегистрирован [ 2019-03-24 17:09 ] · 35F67714FEC6DDDFEED6E681EE03C8E68E42A032

Скачать .torrent

Скачать

15 KB

Статус: проверено
Скачан: 0 раз
Размер: 1,46 GB
terms.php
Показать сообщения:    

Текущее время: 22-Окт 09:25

Часовой пояс: UTC ± 0



Вы не можете начинать темы
Вы не можете отвечать на сообщения
Вы не можете редактировать свои сообщения
Вы не можете удалять свои сообщения
Вы не можете голосовать в опросах
Вы не можете прикреплять файлы к сообщениям
Вы можете скачивать файлы