Статистика раздачи
Размер:  6,22 GB   |    Зарегистрирован:  6 месяцев 28 дней   |    Скачан:  0 раз

Полного источника не было: Никогда

   
 

Гость ®

Пол:
Не указан

Беглянка / Втікачка / Утiкачка
Производство: Кинокомпания "STAR MEDIA"
Жанр: мелодрама
Год выпуска: 2018
Продолжительность: ~ 44:30
Субтитры: Отсутствуют
Режиссёр: Алина Чеботарёва
В ролях: Анна Миклош, Александр Никитин (III), Игорь Рубашкин, Сергей Радченко (III), Дарья Творонович, Пётр Нинёвский, Алиса Дебабова-Лукшина, Ева Шевченко-Головко, Екатерина Варченко, Владимир Заец, Олеся Власова, Тамара Антропова, Пётр Крылов (II), Александр Ганноченко
Описание: Анна, врач высшей категории, становится свидетелем попытки убийства пожилого мужчины, которому многим обязана. Ей удается спасти мужчину. Но после произошедшего Анна вынуждена бежать куда глаза глядят вместе с двумя детьми, без денег, вещей и документов. Иначе она сама окажется в тюрьме! Случай приводит ее в маленький провинциальный городок, где ей приходится снять квартиру и устроиться на работу в местную больницу простой медсестрой… Удастся ли ей спрятаться от человека, который гонится за ней по пятам?
Доп. информация:
Автор релиза -
Источник - HDTV 1080i TS - моя запись с канала "Россия HD"
Рекламы нет!
Все раздачи сериала




Качество видео: HDTV 1080i
Формат видео: TS
Видео кодек: MPEG-4
Аудио кодек: МР2
Видео: 1920x1080 (16:9), 25.000 fps, ~4500 kbps, ~ 0.087 bit/pixel
Аудио: 48000 Гц, 2 ch, 192 kbps

MediaInfo

Общее
Идентификатор : 1 (0x1)
Полное имя : D:\Беглянка.2018.HDTV.1080i-ylnian\Беглянка.2018.HDTV.1080i-ylnian_1.ts
Формат : MPEG-TS
Размер файла : 1,67 Гбайт
Продолжительность : 45 м. 55 с.
Режим общего битрейта : Переменный
Общий поток : 5211 Кбит/сек
Видео
Идентификатор : 1178 (0x49A)
Идентификатор меню : 1138 (0x472)
Формат : AVC
Формат/Информация : Advanced Video Codec
Профиль формата : Main@L4
Настройки формата : CABAC / 4 Ref Frames
Параметр CABAC формата : Да
Параметр RefFrames формата : 4 кадра
Идентификатор кодека : 27
Продолжительность : 45 м. 55 с.
Битрейт : 4760 Кбит/сек
Ширина : 1920 пикселей
Высота : 1080 пикселей
Соотношение сторон : 16:9
Частота кадров : 25,000 кадров/сек
Стандарт вещания : Component
Цветовое пространство : YUV
Субдискретизация насыщенности : 4:2:0
Битовая глубина : 8 бит
Тип развёртки : Чересстрочная
Метод сохранения типа развёртки : Раздельные поля
Порядок развёртки : Верхнее поле первое
Бит/(Пиксели*Кадры) : 0.092
Размер потока : 1,53 Гбайт (91%)
Цветовой диапазон : Limited
Основные цвета : BT.709
Характеристики трансфера : BT.709
Коэффициенты матрицы : BT.709
Аудио
Идентификатор : 1179 (0x49B)
Идентификатор меню : 1138 (0x472)
Формат : MPEG Audio
Версия формата : Version 1
Профиль формата : Layer 2
Идентификатор кодека : 3
Продолжительность : 45 м. 55 с.
Вид битрейта : Постоянный
Битрейт : 192 Кбит/сек
Каналы : 2 канала
Частота : 48,0 КГц
Частота кадров : 41,667 кадра/сек (1152 SPF)
Метод сжатия : С потерями
Задержка видео : -40 мс.
Размер потока : 63,1 Мбайт (4%)
Язык : Russian
Общее
Идентификатор : 1 (0x1)
Полное имя : D:\Беглянка.2018.HDTV.1080i-ylnian\Беглянка.2018.HDTV.1080i-ylnian_2.ts
Формат : MPEG-TS
Размер файла : 1,56 Гбайт
Продолжительность : 44 м. 40 с.
Режим общего битрейта : Переменный
Общий поток : 5010 Кбит/сек
Видео
Идентификатор : 1178 (0x49A)
Идентификатор меню : 1138 (0x472)
Формат : AVC
Формат/Информация : Advanced Video Codec
Профиль формата : Main@L4
Настройки формата : CABAC / 4 Ref Frames
Параметр CABAC формата : Да
Параметр RefFrames формата : 4 кадра
Параметр GOP формата : M=4, N=32
Идентификатор кодека : 27
Продолжительность : 44 м. 40 с.
Битрейт : 4569 Кбит/сек
Ширина : 1920 пикселей
Высота : 1080 пикселей
Соотношение сторон : 16:9
Частота кадров : 25,000 кадров/сек
Стандарт вещания : Component
Цветовое пространство : YUV
Субдискретизация насыщенности : 4:2:0
Битовая глубина : 8 бит
Тип развёртки : Чересстрочная
Метод сохранения типа развёртки : Раздельные поля
Порядок развёртки : Верхнее поле первое
Бит/(Пиксели*Кадры) : 0.088
Размер потока : 1,43 Гбайт (91%)
Цветовой диапазон : Limited
Основные цвета : BT.709
Характеристики трансфера : BT.709
Коэффициенты матрицы : BT.709
Аудио
Идентификатор : 1179 (0x49B)
Идентификатор меню : 1138 (0x472)
Формат : MPEG Audio
Версия формата : Version 1
Профиль формата : Layer 2
Идентификатор кодека : 3
Продолжительность : 44 м. 40 с.
Вид битрейта : Постоянный
Битрейт : 192 Кбит/сек
Каналы : 2 канала
Частота : 48,0 КГц
Частота кадров : 41,667 кадра/сек (1152 SPF)
Метод сжатия : С потерями
Размер потока : 61,3 Мбайт (4%)
Язык : Russian
Общее
Идентификатор : 1 (0x1)
Полное имя : D:\Беглянка.2018.HDTV.1080i-ylnian\Беглянка.2018.HDTV.1080i-ylnian_3.ts
Формат : MPEG-TS
Размер файла : 1,53 Гбайт
Продолжительность : 44 м. 34 с.
Режим общего битрейта : Переменный
Общий поток : 4913 Кбит/сек
Видео
Идентификатор : 1178 (0x49A)
Идентификатор меню : 1138 (0x472)
Формат : AVC
Формат/Информация : Advanced Video Codec
Профиль формата : Main@L4
Настройки формата : CABAC / 4 Ref Frames
Параметр CABAC формата : Да
Параметр RefFrames формата : 4 кадра
Параметр GOP формата : M=4, N=32
Идентификатор кодека : 27
Продолжительность : 44 м. 34 с.
Битрейт : 4477 Кбит/сек
Ширина : 1920 пикселей
Высота : 1080 пикселей
Соотношение сторон : 16:9
Частота кадров : 25,000 кадров/сек
Стандарт вещания : Component
Цветовое пространство : YUV
Субдискретизация насыщенности : 4:2:0
Битовая глубина : 8 бит
Тип развёртки : Чересстрочная
Метод сохранения типа развёртки : Раздельные поля
Порядок развёртки : Верхнее поле первое
Бит/(Пиксели*Кадры) : 0.086
Размер потока : 1,39 Гбайт (91%)
Цветовой диапазон : Limited
Основные цвета : BT.709
Характеристики трансфера : BT.709
Коэффициенты матрицы : BT.709
Аудио
Идентификатор : 1179 (0x49B)
Идентификатор меню : 1138 (0x472)
Формат : MPEG Audio
Версия формата : Version 1
Профиль формата : Layer 2
Идентификатор кодека : 3
Продолжительность : 44 м. 34 с.
Вид битрейта : Постоянный
Битрейт : 192 Кбит/сек
Каналы : 2 канала
Частота : 48,0 КГц
Частота кадров : 41,667 кадра/сек (1152 SPF)
Метод сжатия : С потерями
Размер потока : 61,2 Мбайт (4%)
Язык : Russian
Общее
Идентификатор : 1 (0x1)
Полное имя : D:\Беглянка.2018.HDTV.1080i-ylnian\Беглянка.2018.HDTV.1080i-ylnian_4.ts
Формат : MPEG-TS
Размер файла : 1,46 Гбайт
Продолжительность : 42 м. 50 с.
Режим общего битрейта : Переменный
Общий поток : 4875 Кбит/сек
Видео
Идентификатор : 1178 (0x49A)
Идентификатор меню : 1138 (0x472)
Формат : AVC
Формат/Информация : Advanced Video Codec
Профиль формата : Main@L4
Настройки формата : CABAC / 4 Ref Frames
Параметр CABAC формата : Да
Параметр RefFrames формата : 4 кадра
Идентификатор кодека : 27
Продолжительность : 42 м. 50 с.
Битрейт : 4440 Кбит/сек
Ширина : 1920 пикселей
Высота : 1080 пикселей
Соотношение сторон : 16:9
Частота кадров : 25,000 кадров/сек
Стандарт вещания : Component
Цветовое пространство : YUV
Субдискретизация насыщенности : 4:2:0
Битовая глубина : 8 бит
Тип развёртки : Чересстрочная
Метод сохранения типа развёртки : Раздельные поля
Порядок развёртки : Верхнее поле первое
Бит/(Пиксели*Кадры) : 0.086
Размер потока : 1,33 Гбайт (91%)
Цветовой диапазон : Limited
Основные цвета : BT.709
Характеристики трансфера : BT.709
Коэффициенты матрицы : BT.709
Аудио
Идентификатор : 1179 (0x49B)
Идентификатор меню : 1138 (0x472)
Формат : MPEG Audio
Версия формата : Version 1
Профиль формата : Layer 2
Идентификатор кодека : 3
Продолжительность : 42 м. 50 с.
Вид битрейта : Постоянный
Битрейт : 192 Кбит/сек
Каналы : 2 канала
Частота : 48,0 КГц
Частота кадров : 41,667 кадра/сек (1152 SPF)
Метод сжатия : С потерями
Размер потока : 58,8 Мбайт (4%)
Язык : Russian
[cybertorrent.ru].t1427.torrent 
Торрент: Зарегистрирован [ 2019-03-24 17:09 ] · CD7CFDE23ECC09182249ADD2B405AC74E193997C

Скачать .torrent

Скачать

32 KB

Статус: проверено
Скачан: 0 раз
Размер: 6,22 GB
terms.php
Показать сообщения:    

Текущее время: 22-Окт 09:01

Часовой пояс: UTC ± 0



Вы не можете начинать темы
Вы не можете отвечать на сообщения
Вы не можете редактировать свои сообщения
Вы не можете удалять свои сообщения
Вы не можете голосовать в опросах
Вы не можете прикреплять файлы к сообщениям
Вы можете скачивать файлы