Статистика раздачи
Размер:  1,46 GB   |    Зарегистрирован:  3 месяца 7 дней   |    Скачан:  0 раз
Сидов:  35  [  0 KB/s  ]   Личеров:  5  [  0 KB/s  ]  
 
   
 
 

lopster ®

Пол:
Не указан
Стаж:
3 месяца 7 дней
Сообщений:
612

Околофутбола
«Нас не изменить!»
Жанр: драма, криминал
Год выпуска: 2013
Продолжительность: 01:32:57
Режиссер: Антон Борматов
В ролях: Александр Ратников, Иван Фоминов, Григорий Иванец, Павел Ерлыков, Дарья Мингазетдинова, Юлия Маньковская, Евгений Березин, Никита Кукушкин, Сергей Шнырев, Максим Белбородов, Владимир Колосов, Валерий Баринов
Описание:
Фильм о самой закрытой части футбольных болельщиков - околофутбольных хулиганах. Они - самые агрессивные и жестокие представители мира футбольных фанатов. Они - элита околофутбола. Кем бы они ни были в обычной жизни - студентами или банкирами, музыкантами или автомеханиками, на самом деле все они - одна «фирма». Попасть в «фирму» очень сложно, но если ты в ней оказался - это на всю жизнь. И обратного пути нет.

Автор рипа: stalkerok
Сэмпл
Качество видео: BDRip-AVC [Околофутбола (2013) Blu-ray Disc [GER] -CDP]
Формат видео: MKV
Видео: 1796 Кбит/сек, 910x382 (2.40:1), 25 кадр/сек, AVC
Аудио: 448 Кбит/сек, 48 КГц, 5.1, AC3 [Blu-ray GER]
Навигация по главам: есть

Сравнение Blu-ray RUS (16:9) vs Blu-ray GER (2.40:1)

Blu-ray RUS (16:9)

Blu-ray GER (2.40:1)

x264/MediaInfo

---[Information] [03.02.2018 12:23:12] x264 [info]: frame I:1239 Avg QP:16.25 size: 51408
---[Information] [03.02.2018 12:23:12] x264 [info]: frame P:36709 Avg QP:19.80 size: 17242
---[Information] [03.02.2018 12:23:12] x264 [info]: frame B:101482 Avg QP:21.92 size: 5471
General
Unique ID : 224005821074883384608326148830117521091 (0xA885F3AC9B45F44CB84028CC2B9066C3)
Complete name : M:\$oldrerips\okolofytbola\Okolofutbola.2013.BDRip-AVC.RUS.stalkerok.new-team.mkv
Format : Matroska
Format version : Version 4 / Version 2
File size : 1.46 GiB
Duration : 1 h 32 min
Overall bit rate : 2 245 kb/s
Movie name : Околофутбола (2013) (Rip by stalkerok)
Encoded date : UTC 2018-02-03 16:07:49
Writing application : mkvmerge v8.6.1 ('Flying') 64bit
Writing library : libebml v1.3.3 + libmatroska v1.4.4
Video
ID : 1
Format : AVC
Format/Info : Advanced Video Codec
Format profile : High@L4.1
Format settings, CABAC : Yes
Format settings, ReFrames : 12 frames
Codec ID : V_MPEG4/ISO/AVC
Duration : 1 h 32 min
Bit rate : 1 796 kb/s
Width : 910 pixels
Height : 382 pixels
Display aspect ratio : 2.40:1
Frame rate mode : Constant
Frame rate : 25.000 FPS
Color space : YUV
Chroma subsampling : 4:2:0
Bit depth : 8 bits
Scan type : Progressive
Bits/(Pixel*Frame) : 0.207
Stream size : 1.17 GiB (80%)
Title : Околофутбола (2013) (Rip by stalkerok)
Writing library : x264 core 152 r2851kMod ba24899
Encoding settings : cabac=1 / ref=12 / deblock=1:-3:-2 / analyse=0x3:0x133 / me=umh / subme=11 / psy=1 / fade_compensate=0.00 / psy_rd=1.00:0.00 / mixed_ref=1 / me_range=32 / chroma_me=1 / trellis=2 / 8x8dct=1 / cqm=0 / deadzone=21,11 / fast_pskip=0 / chroma_qp_offset=-2 / threads=12 / lookahead_threads=2 / sliced_threads=0 / nr=0 / decimate=0 / interlaced=0 / bluray_compat=0 / constrained_intra=0 / bframes=14 / b_pyramid=2 / b_adapt=2 / b_bias=0 / direct=3 / weightb=1 / open_gop=0 / weightp=2 / keyint=250 / keyint_min=25 / scenecut=40 / intra_refresh=0 / rc_lookahead=60 / rc=2pass / mbtree=0 / bitrate=1796 / ratetol=1.0 / qcomp=0.65 / qpmin=0 / qpmax=69 / qpstep=4 / cplxblur=20.0 / qblur=0.5 / vbv_maxrate=50000 / vbv_bufsize=62500 / nal_hrd=none / filler=0 / ip_ratio=1.40 / pb_ratio=1.30 / aq=3:0.90 / zones=135740,139429,q=34
Default : Yes
Forced : No
Audio
ID : 2
Format : AC-3
Format/Info : Audio Coding 3
Mode extension : CM (complete main)
Format settings, Endianness : Big
Codec ID : A_AC3
Duration : 1 h 32 min
Bit rate mode : Constant
Bit rate : 448 kb/s
Channel(s) : 6 channels
Channel positions : Front: L C R, Side: L R, LFE
Sampling rate : 48.0 kHz
Frame rate : 31.250 FPS (1536 spf)
Compression mode : Lossy
Stream size : 298 MiB (20%)
Default : Yes
Forced : No
Menu
00:00:00.000 : en:Chapter 1
00:08:13.560 : en:Chapter 2
00:22:13.920 : en:Chapter 3
00:35:02.680 : en:Chapter 4
00:47:32.680 : en:Chapter 5
01:02:33.240 : en:Chapter 6
01:12:32.760 : en:Chapter 7
01:24:14.680 : en:Chapter 8

Скриншоты

[cybertorrent.ru].t143.torrent 
Торрент: Зарегистрирован [ 2018-02-15 13:57 ] · AC33E2344626687D91C3B24A4A731F7CEA561106

Скачать .torrent

Скачать

15 KB

Статус: проверено
Скачан: 0 раз
Размер: 1,46 GB
Профиль [ЛС]
Показать сообщения:    

Текущее время: 23-Май 07:13

Часовой пояс: UTC ± 0



Вы не можете начинать темы
Вы не можете отвечать на сообщения
Вы не можете редактировать свои сообщения
Вы не можете удалять свои сообщения
Вы не можете голосовать в опросах
Вы не можете прикреплять файлы к сообщениям
Вы можете скачивать файлы