Статистика раздачи
Размер:  2,71 GB   |    Зарегистрирован:  9 месяцев 2 дня   |    Скачан:  0 раз

Полного источника не было: Никогда

Личеров:  3  [  0 KB/s  ]  
 
   
 
 

irkutsk ®

Пол:
Не указан
Стаж:
9 месяцев 3 дня
Сообщений:
175

Южный Парк / South Park- -Год выпуска: 2011
Страна: США | Comedy Central
Жанр: мультфильм, комедия
Продолжительность: ~ 22 мин. серия
Перевод: Профессиональный (двухголосый, закадровый) /Кубик в Кубе/
Русские субтитры: нет
Режиссёр: Мэтт Стоун, Трей Паркер-Роли озвучивали: Трей Паркер, Мэтт Стоун, Мона Маршалл, Элиза Шнайдер, Эйприл Стюарт, Дженнифер Хауэлл, Мэри Кэй Бергман, Эдриан Бирд, Кайл Маккаллок-Описание: Южный парк — американский мультсериал, созданный Мэттом Стоуном и Треем Паркером. Выпускается кабельным телеканалом Comedy Central с 1997 г. Основу сюжета составляют сюрреалистические приключения четырёх мальчиков и их друзей, живущих в маленьком городке Саут-Парк, штат Колорадо. Сериал высмеивает американскую культуру и текущие мировые события, а также подвергает критике множество глубоких убеждений и табу, благодаря пародии и чёрному юмору.-Все раздачи мультсериала: http://cybertorrent.ru/tracker.php?f=927
Семпл: http://narod.ru/disk/11513224001/South.Park_s15_sample.avi.html-Качество: HDTVRip
Формат: AVI
Видео: 624*352 (1.77), 23.976 fps, XviD MPEG-4, ~973 kbps, 0.19 bit/pixel
Аудио: 48 kHz, MPEG Layer 3, 2 ch, ~128 kbps |Кубик в Кубе|
Аудио: 48 kHz, MPEG Layer 3, 2 ch, ~128 kbps |Оригинал|-Релиз:
Перевод: yazzzzzva, с 8 серии - Анастасия Кисиленко (Medveditsa)
Озвучка: Кубик в Кубе--

Список серий

-- 01 - Human CentiPad
- 02 - Funnybot
- 03 - Royal Pudding
- 04 - T.M.I.
- 05 - Crack Baby Athletic Association
- 06 - City Sushi
- 07 - You're Getting Old
- 08 - Ass Burgers
- 09 - The Last of the Meheecans
- 10 - Bass to Mouth
- 11 - Broadway Bro Down
- 12 - 1%
- 13 - A History Channel Thanksgiving
- 14 - The Poor Kid-

Скриншоты

- Как закачать отдельный файл из торрента или докачать ранее пропущенные файлы торрента! -

MI

Код:General
Complete name : E:\South.Park_s15e01_HDTVRip.Rus.[Kubik.v.Kube].Eng.avi
Format : AVI
Format/Info : Audio Video Interleave
File size : 192 MiB
Duration : 21mn 41s
Overall bit rate : 1 240 Kbps
Writing application : VirtualDubMod 1.5.10.2 (build 2540/release)
Writing library : VirtualDubMod build 2540/release
Video
ID : 0
Format : MPEG-4 Visual
Format profile : Advanced Simple@L5
Format settings, BVOP : Yes
Format settings, QPel : No
Format settings, GMC : No warppoints
Format settings, Matrix : Default (H.263)
Codec ID : XVID
Codec ID/Hint : XviD
Duration : 21mn 41s
Bit rate : 969 Kbps
Width : 624 pixels
Height : 352 pixels
Display aspect ratio : 16:9
Frame rate : 23.976 fps
Resolution : 8 bits
Colorimetry : 4:2:0
Scan type : Progressive
Bits/(Pixel*Frame) : 0.184
Stream size : 150 MiB (78%)
Writing library : XviD 1.2.1 (UTC 2008-12-04)
Audio #1
ID : 1
Format : MPEG Audio
Format version : Version 1
Format profile : Layer 3
Format_Settings_Mode : Joint stereo
Format_Settings_ModeExtension : MS Stereo
Codec ID : 55
Codec ID/Hint : MP3
Duration : 21mn 41s
Bit rate mode : Constant
Bit rate : 128 Kbps
Channel(s) : 2 channels
Sampling rate : 48.0 KHz
Stream size : 19.9 MiB (10%)
Alignment : Aligned on interleaves
Interleave, duration : 42 ms (1.00 video frame)
Interleave, preload duration : 504 ms
Audio #2
ID : 2
Format : MPEG Audio
Format version : Version 1
Format profile : Layer 3
Format_Settings_Mode : Joint stereo
Format_Settings_ModeExtension : MS Stereo
Codec ID : 55
Codec ID/Hint : MP3
Duration : 21mn 41s
Bit rate mode : Variable
Bit rate : 128 Kbps
Channel(s) : 2 channels
Sampling rate : 48.0 KHz
Stream size : 19.9 MiB (10%)
Alignment : Split accross interleaves
Interleave, duration : 42 ms (1.00 video frame)
Interleave, preload duration : 500 ms

Внимание! Раздача ведётся путём добавления новых серий!

Внимание! Раздача ведётся путём добавления новых серий; при каждом добавлении создётся новый торрент. Чтобы начать докачку новой серии, пользователям необходимо сделать следующее:
(1) остановить скачивание,
(2) удалить старый торрент у себя из клиента (старые серии удалять не надо),
(3) скачать новый торрент и запустить его у себя в клиенте вместо старого, при этом указать клиенту путь в старую папку куда и должно происходить скачивание новых серий.
Ваш клиент при этом должен произвести хеширование (проверку) старой папки (если не производит сам - помогите ему сделать это), и будет докачивать только те серии которых у вас ещё нет. Старые серии при этом не удаляются, а продолжают раздаваться!
Eсли вы уже удалили старые серии, то предотвратить повторную закачку старых серий можно, отжав галочку в соответсвующих местах при запуске нового торрента.
--
[cybertorrent.ru].t1430.torrent 
Торрент: Зарегистрирован [ 2018-02-16 03:41 ] · 2CA1561481668F88B9908E7A763413BA243FF4C9

Скачать .torrent

Скачать

15 KB

Статус: проверено
Скачан: 0 раз
Размер: 2,71 GB
Профиль [ЛС]
Показать сообщения:    

Текущее время: 18-Ноя 12:04

Часовой пояс: UTC ± 0



Вы не можете начинать темы
Вы не можете отвечать на сообщения
Вы не можете редактировать свои сообщения
Вы не можете удалять свои сообщения
Вы не можете голосовать в опросах
Вы не можете прикреплять файлы к сообщениям
Вы можете скачивать файлы
Torrents24.ru открытый BitTorrent Torrents24.pl открытый BitTorrent CyberTorrent.ru открытый BitTorrent BtList.ru рейтинг BitTorrent трекеров Яндекс.Метрика