Статистика раздачи
Размер:  125 MB   |    Зарегистрирован:  6 месяцев 23 дня   |    Скачан:  0 раз

Полного источника не было: Никогда

   
 

Гость ®

Пол:
Не указан

Вторжение Год выпуска: 2005
Страна: Казахстан
Жанр: мультфильм
Продолжительность: 00:07:30
Перевод: не требуется-Режиссёр: Жакен Даненов-Описание: Неспокойно стало в лесу: загудели экскаваторы, застучали молотки - и совсем скоро здесь появился дом, полный гостей, шума и веселья. Вторжение людей, в мир зверей и птиц - лишил их сна и покоя, и, любопытные, они потянулись к дому. Вдруг к окну подполз малыш – и загляделся он на волчонка, хомячка, медведицу с медвежонком, которые с удивлением смотрели на малыша. Но вдруг взрослые, вспомнившие о малыше, кинулись к нему – а за окном какого только зверья нет! Закричала в испуге мать, заплакал малыш, загремели выстрелы, и кинулись звери кто-куда… так и покинули они эти места.-Качество: DVB [Ел Арна] (эфир 24.03.2019)
Формат: TS
Видео: AVC, 720x576 (16:9) @ 1047x576, 25 fps, ~2013 kbps, 0.194 bit/pixel
Аудио: [RUS] MP2, 48 kHz, 2 ch, 192 kbps

Mediainfo

General
ID : 1 (0x1)
Complete name : H:\Раздачи\Вторжение (2005) [DVB].ts
Format : MPEG-TS
File size : 125 MiB
Duration : 7 min 30 s
Overall bit rate mode : Variable
Overall bit rate : 2 322 kb/s
Video
ID : 67 (0x43)
Menu ID : 1 (0x1)
Format : AVC
Format/Info : Advanced Video Codec
Format profile : High@L3
Format settings : CABAC / 3 Ref Frames
Format settings, CABAC : Yes
Format settings, ReFrames : 3 frames
Format settings, GOP : M=4, N=32
Codec ID : 27
Duration : 7 min 30 s
Bit rate : 2 013 kb/s
Width : 720 pixels
Height : 576 pixels
Display aspect ratio : 16:9
Frame rate : 25.000 FPS
Standard : Component
Color space : YUV
Chroma subsampling : 4:2:0
Bit depth : 8 bits
Scan type : Interlaced
Scan type, store method : Separated fields
Scan order : Top Field First
Bits/(Pixel*Frame) : 0.194
Stream size : 108 MiB (87%)
Color range : Limited
Color primaries : BT.601 PAL
Transfer characteristics : BT.470 System B/G
Matrix coefficients : BT.470 System B/G
Audio
ID : 68 (0x44)
Menu ID : 1 (0x1)
Format : MPEG Audio
Format version : Version 1
Format profile : Layer 2
Codec ID : 3
Duration : 7 min 30 s
Bit rate mode : Constant
Bit rate : 192 kb/s
Channel(s) : 2 channels
Sampling rate : 48.0 kHz
Frame rate : 41.667 FPS (1152 SPF)
Compression mode : Lossy
Stream size : 10.3 MiB (8%)
Language : English

Скриншоты

[cybertorrent.ru].t1431.torrent 
Торрент: Зарегистрирован [ 2019-03-24 17:09 ] · E953EA1B9626D2881EF6D8B465CCA1C54507B0AC

Скачать .torrent

Скачать

20 KB

Статус: проверено
Скачан: 0 раз
Размер: 125 MB
terms.php
Показать сообщения:    

Текущее время: 17-Окт 00:10

Часовой пояс: UTC ± 0



Вы не можете начинать темы
Вы не можете отвечать на сообщения
Вы не можете редактировать свои сообщения
Вы не можете удалять свои сообщения
Вы не можете голосовать в опросах
Вы не можете прикреплять файлы к сообщениям
Вы можете скачивать файлы