Статистика раздачи
Размер:  8,77 GB   |    Зарегистрирован:  7 месяцев 5 дней   |    Скачан:  0 раз

Полного источника не было: Никогда

 
   
 
 

irkutsk ®

Пол:
Не указан
Стаж:
7 месяцев 6 дней
Сообщений:
620

Южный Парк / South Park
Сезон: 14 и 15
Годы выпуска: 2010-2011
Страна: США
Жанр: комедия, мультсериал
Продолжительность: 28 серий * ~ 22 минуты, бонусы
Перевод:
Профессиональный (двухголосый закадровый) 2x2 - Мария Трындяйкина и Евгений Рыбов (кроме 5 и 6 серий 14 сезона)
Профессиональный (двухголосый закадровый) Студия "Кубик в Кубе" (только 5 и 6 серии 14 сезона)
Профессиональный (многоголосый закадровый) украинский KER Production, FiliZa Studio & МТВ Украина (только 14 сезон)
А также оригинальная английская звуковая дорожка
Русские субтитры: есть (LazyMax, Chaka и другие авторы)
Английские субтитры: есть
Режиссёры: Трэй Паркер и Мэт Стоун / Trey Parker & Matt Stone
Роли озвучивали: Мэт Стоун, Трэй Паркер, Эйприл Стюарт, Мона Маршалл, Эдриен Бирд, Вернон Четмэн, Илана Коон, Лиза Донован, Роберт Эрнст, Кэти Фэрис, Хитер Дженкинс, Крэг ЛаМарш, Лондон Куинси, Себастьян Ю, Александра Мейер, Джордж Уайет, Ситэн Уэнблай, Уилльямс, Эделин Олгуд, Джошуа Кай, Джессика Тупас, Мэйсон МакНалти, Лиам Куинси, Джесси Джо Томас, Эйва Домини, Дэниэл Грегори, Арман Саркуб, Сефира Стрит, Молли Пасутти, Билл Хейдер, Эдуардо Альварадо, Андрэс Арготэ, Лухан, Луис Валенсия, Адриана Янез, Милли Оливер, Брэд Пейсли, Роберт Лопес, Дэвид Бёрнхэм, Тамара Дамиано, Кейт Пазакис, Люшиос Посэ, Фрэд Лиланд, Майкл Бенет, Патрик Лэндер, Набулунги Хатимби, Крис Борковец, Киара Лисетте Гамбоа, Селесте Хавьер и Калеб Ратледж
Описание: Содержание этой раздачи почти полностью повторяет мою раздачу рипов с Blu-ray дисков 14 и 15 сезонов в HD разрешении. Отличия - "стандартное" разрешение 720*400 точек, использование кодеров XviD для видео и Mp3 для звука, контейнера Avi. С более подробным описанием можно ознакомиться в теме указанной раздачи HD здесь.
Дополнительная информация: По традиции общий объём всех серий сезонов и бонусов - 4 479 Мб (14-й сезон) и 4 477 Мб (15-й сезон), что без проблем помещается на любую стандартную болванку Dvd.

Список эпизодов

14-й сезон (эфир: март - ноябрь 2010 г.)
1401 Сексуальное исцеление / Sexual Healing (2x2, Ukr, Eng, [Sub: Chaka, Eng])
1402 История о Жопе Мак-Яйцеглисте / The Tale of Scrotie McBoogerballs (2x2, Ukr, Eng, [Sub: Chaka, Eng])
1403 Лечебные жареные цыплята / Medicinal Fried Chicken (2x2, Ukr, Eng, [Sub: Chaka, Eng])
1404 У Вас 0 друзей / You Have 0 Friends (2x2, Ukr, Eng, [Sub: Chaka & Haze, Eng])
1405 200 (Кубик в Кубе, Ukr, Eng, [Sub: LazyMax, Chaka & Haze, Eng])
1406 201 (Кубик в Кубе, Ukr, Eng, [Sub: LazyMax, Verdy & Co., Eng])
1407 Искалеченное лето / Crippled Summer (2x2, Ukr, Eng, [Sub: Verdy & Co., Eng])
1408 Бедный и тупой / Poor and Stupid (2x2, Ukr, Eng, [Sub: LazyMax, Eng])
1409 Хрень в стиле Джерси / It's a Jersey Thing (2x2, Ukr, Eng, [Sub: LazyMax, Eng])
1410 Мычало / Insheeption (2x2, Ukr, Eng, [Sub: LazyMax, Eng])
1411 Енот 2: Очевидность / Coon 2: Hindsight (2x2, Ukr, Eng, [Sub: LazyMax, Eng])
1412 Енот 3: Восхождение Мистериона / Mysterion Rises (2x2, Ukr, Eng, [Sub: LazyMax, Eng])
1413 Енот 4: Енот против друзей Енота / Coon vs. Coon & Friends (2x2, Ukr, Eng, [Sub: LazyMax, Eng])
1414 Crème Fraîche (2x2, Ukr, Eng, [Sub: LazyMax, Eng])
Бонус - Удалённые сцены / Deleted Scenes (Eng, [Sub: Chaka, Eng])
15-й сезон (эфир: апрель - ноябрь 2011 г.)
1501 Человеческая МногоПЕДка / HUMANCENTiPAD (2x2, Eng, [Sub: LazyMax, Eng])
1502 Смехобот / Funnybot (2x2, Eng, [Sub: LazyMax, Eng])
1503 Королевская сва...фля / Royal Pudding (2x2, Eng, [Sub: LazyMax, Eng])
1504 И.Р.П. / T.M.I. (2x2, Eng, [Sub: LazyMax, Eng])
1505 Спортивная ассоциация крэк-зависимых младенцев / Crack Baby Athletic Association (2x2, Eng, [Sub: LazyMax, Eng])
1506 Ганьван Суши / City Sushi (2x2, Eng, [Sub: LazyMax, Eng])
1507 Стареешь / You're Getting Old (2x2, Eng, [Sub: LazyMax, Eng])
1508 Ассбургеры / Ass Burgers (2x2, Eng, [Sub: LazyMax, Eng])
1509 Последний из мехикан / The Last of the Meheecans (2x2, Eng, [Sub: LazyMax, Eng])
1510 Шпрот в рот / Bass to Mouth (2x2, Eng, [Sub: LazyMax, Eng])
1511 Братвейский Братобой / Broadway Bro Down (2x2, Eng, [Sub: LazyMax, Eng])
1512 1% (2x2, Eng, [Sub: LazyMax, Eng])
1513 День Благодарения на телеканале "История" / A History Channel Thanksgiving (2x2, Eng, [Sub: LazyMax, Eng])
1514 Самый бедный в школе / The Poor Kid (2x2, Eng, [Sub: LazyMax, Eng])
Бонус 1 - Удалённые сцены / Deleted Scenes (Eng, [Sub: Chaka])
Бонус 2 - За кулисами эпизода "Человеческая МногоПЕДка" / Behind the Scenes of "HUMANCENTiPAD" (Eng, [Sub: Eng])
документальный фильм, эфир - 9 октября 2011 г., продолжительность 00:42:05, 519 Мб.
Бонус 3 - За кулисами эпизода "Ганьван Суши" / Behind the Scenes of "City Sushi" (Eng, [Sub: Rus, Eng])
Бонус 4 - За кулисами эпизода "Стареешь / Behind the Scenes of "You're Getting Old" (Eng, [Sub: Rus, Eng])
документальные ролики, продолжительность 00:03:29 и 00:01:54, 42 и 21 Мб.
Внимание! Бонус 2 не переведён на русский язык, но снабжён английскими субтитрами.
Качество: Bd Rip
Формат: AVI
Видео кодек: XviD
Аудио кодек: Mp3
Видео: 720*400, 23.976 кадров/сек, 1457-1661 кб/сек, VBR (14-й сезон) и 1359-1614 кб/сек, VBR (15-й сезон)
Аудио 1: 44.1 kHz, Mono, 128 кб/сек, CBR [русский]
Аудио 2: 44.1 kHz, Stereo, 128 кб/сек, CBR (только 14-й сезон) [украинский]
Аудио 3: 44.1 kHz, Stereo, 128 кб/сек, CBR [английский]

Сравнение скриншотов

!!! Данная информация добавлена по требованию модератора !!!
Сравнение скриншотов из раздачи loma44444 со скриншотами из этой раздачи.
На примерах видно, что рипы с Blu-ray дисков не высветлены, мелкие детали проработаны лучше и не замылены, артефакты сжатия типа "ringing" отсутствуют. Во многом эта разница объясняется качеством источников: всё-таки Blu-ray диски и WEB-DL с сервиса iTunes - понятия разного порядка.
Раздача WEB-DL рипов 720*400 от loma44444 создавалась, когда Blu-ray дисков 15-го сезона ещё и в помине не было, а WEB-DL оставался лучшим источником видео.

Информация Media Info для 1407 серии

General
Complete name : South_Park_S14E07_Crippled_Summer_2x2_Ukr_Eng_Sub_BdRip_XviD.avi
Format : AVI
Format/Info : Audio Video Interleave
File size : 315 MiB
Duration : 22mn 17s
Overall bit rate : 1 972 Kbps
Video
ID : 0
Format : MPEG-4 Visual
Format profile : Advanced Simple@L5
Format settings, BVOP : 2
Format settings, QPel : No
Format settings, GMC : No warppoints
Format settings, Matrix : Custom
Muxing mode : Packed bitstream
Codec ID : XVID
Codec ID/Hint : XviD
Duration : 22mn 17s
Bit rate : 1 582 Kbps
Width : 720 pixels
Height : 400 pixels
Display aspect ratio : 16:9
Frame rate : 23.976 fps
Color space : YUV
Chroma subsampling : 4:2:0
Bit depth : 8 bits
Scan type : Progressive
Compression mode : Lossy
Bits/(Pixel*Frame) : 0.229
Stream size : 252 MiB (80%)
Writing library : XviD 63
Audio #1
ID : 1
Format : MPEG Audio
Format version : Version 1
Format profile : Layer 3
Mode : Joint stereo
Mode extension : MS Stereo
Codec ID : 55
Codec ID/Hint : MP3
Duration : 22mn 17s
Bit rate mode : Constant
Bit rate : 128 Kbps
Channel(s) : 2 channels
Sampling rate : 44.1 KHz
Compression mode : Lossy
Stream size : 20.4 MiB (6%)
Alignment : Aligned on interleaves
Interleave, duration : 476 ms (11.42 video frames)
Interleave, preload duration : 209 ms
Title : 1407-2x2
Audio #2
ID : 2
Format : MPEG Audio
Format version : Version 1
Format profile : Layer 3
Mode : Joint stereo
Mode extension : MS Stereo
Codec ID : 55
Codec ID/Hint : MP3
Duration : 22mn 17s
Bit rate mode : Constant
Bit rate : 128 Kbps
Channel(s) : 2 channels
Sampling rate : 44.1 KHz
Compression mode : Lossy
Stream size : 20.4 MiB (6%)
Alignment : Aligned on interleaves
Interleave, duration : 476 ms (11.42 video frames)
Interleave, preload duration : 209 ms
Title : 1407-Ukr
Audio #3
ID : 3
Format : MPEG Audio
Format version : Version 1
Format profile : Layer 3
Mode : Joint stereo
Mode extension : MS Stereo
Codec ID : 55
Codec ID/Hint : MP3
Duration : 22mn 17s
Bit rate mode : Constant
Bit rate : 128 Kbps
Channel(s) : 2 channels
Sampling rate : 44.1 KHz
Compression mode : Lossy
Stream size : 20.4 MiB (6%)
Alignment : Aligned on interleaves
Interleave, duration : 476 ms (11.42 video frames)
Interleave, preload duration : 209 ms
Title : 1407-Eng
Text #1
ID : 4
Duration : 22mn 17s
Bit rate : 288 bps
Stream size : 47.0 KiB (0%)
Title : 1407-Rus
Text #2
ID : 5
Duration : 22mn 17s
Bit rate : 211 bps
Stream size : 34.5 KiB (0%)
Title : 1407-Eng

Информация Media Info для 1506 серии

General
Complete name : South_Park_S15E06_City_Sushi_2x2_Eng_Sub_BdRip_XviD.avi
Format : AVI
Format/Info : Audio Video Interleave
File size : 282 MiB
Duration : 22mn 26s
Overall bit rate : 1 756 Kbps
Video
ID : 0
Format : MPEG-4 Visual
Format profile : Advanced Simple@L5
Format settings, BVOP : 2
Format settings, QPel : No
Format settings, GMC : No warppoints
Format settings, Matrix : Default (MPEG)
Muxing mode : Packed bitstream
Codec ID : XVID
Codec ID/Hint : XviD
Duration : 22mn 26s
Bit rate : 1 494 Kbps
Width : 720 pixels
Height : 400 pixels
Display aspect ratio : 16:9
Frame rate : 23.976 fps
Color space : YUV
Chroma subsampling : 4:2:0
Bit depth : 8 bits
Scan type : Progressive
Compression mode : Lossy
Bits/(Pixel*Frame) : 0.216
Stream size : 240 MiB (85%)
Writing library : XviD 64
Audio #1
ID : 1
Format : MPEG Audio
Format version : Version 1
Format profile : Layer 3
Mode : Joint stereo
Mode extension : MS Stereo
Codec ID : 55
Codec ID/Hint : MP3
Duration : 22mn 25s
Bit rate mode : Constant
Bit rate : 128 Kbps
Channel(s) : 2 channels
Sampling rate : 44.1 KHz
Compression mode : Lossy
Stream size : 20.5 MiB (7%)
Alignment : Aligned on interleaves
Interleave, duration : 546 ms (13.10 video frames)
Interleave, preload duration : 209 ms
Title : 1506-2x2
Audio #2
ID : 2
Format : MPEG Audio
Format version : Version 1
Format profile : Layer 3
Mode : Joint stereo
Mode extension : MS Stereo
Codec ID : 55
Codec ID/Hint : MP3
Duration : 22mn 25s
Bit rate mode : Constant
Bit rate : 128 Kbps
Channel(s) : 2 channels
Sampling rate : 44.1 KHz
Compression mode : Lossy
Stream size : 20.5 MiB (7%)
Alignment : Aligned on interleaves
Interleave, duration : 546 ms (13.10 video frames)
Interleave, preload duration : 209 ms
Title : 1506-Eng
Text #1
ID : 3
Duration : 22mn 26s
Bit rate : 273 bps
Stream size : 44.9 KiB (0%)
Title : 1506-LazyMax
Text #2
ID : 4
Duration : 22mn 26s
Bit rate : 232 bps
Stream size : 38.1 KiB (0%)
Title : 1506-Eng
Внимание! Во всех файлах в этой раздаче несколько звуковых дорожек и субтитры. Для того, чтобы не слушать их одновременно, а переключать аудио и субтитры, используйте нормальный видеопроигрыватель. Условно бесплатный Windows Media Player от Micro$oft к нормальным не относится! Рекомендую VLC или Media Player Classic Home Cinema, в которые встроены все декодеры, необходимые для комфортного просмотра большинства видеофайлов, и поэтому засорять компьютер всевозможными кодек-паками уже не нужно.
...
[cybertorrent.ru].t1437.torrent 
Торрент: Зарегистрирован [ 2018-02-16 03:41 ] · 16ED0A910B0FF9FC7FA4342AA0ADB596D82EDCAE

Скачать .torrent

Скачать

27 KB

Статус: проверено
Скачан: 0 раз
Размер: 8,77 GB
Профиль [ЛС]
Показать сообщения:    

Текущее время: 21-Сен 12:07

Часовой пояс: UTC ± 0



Вы не можете начинать темы
Вы не можете отвечать на сообщения
Вы не можете редактировать свои сообщения
Вы не можете удалять свои сообщения
Вы не можете голосовать в опросах
Вы не можете прикреплять файлы к сообщениям
Вы можете скачивать файлы
Torrents24.ru открытый BitTorrent Torrents24.pl открытый BitTorrent CyberTorrent.ru открытый BitTorrent BtList.ru рейтинг BitTorrent трекеров Яндекс.Метрика