Статистика раздачи
Размер:  746 MB   |    Зарегистрирован:  3 месяца 11 дней   |    Скачан:  0 раз
Сидов:  16  [  0 KB/s  ]  
 
   
 
 

lopster ®

Пол:
Не указан
Стаж:
3 месяца 11 дней
Сообщений:
612

Околофутбола
«Нас не изменить!»
Жанр: драма, криминал
Год выпуска: 2013
Продолжительность: 01:32:57
Режиссер: Антон Борматов
В ролях: Александр Ратников, Иван Фоминов, Григорий Иванец, Павел Ерлыков, Дарья Мингазетдинова, Юлия Маньковская, Евгений Березин, Никита Кукушкин, Сергей Шнырев, Максим Белбородов, Владимир Колосов, Валерий Баринов
Описание:
Фильм о самой закрытой части футбольных болельщиков - околофутбольных хулиганах. Они - самые агрессивные и жестокие представители мира футбольных фанатов. Они - элита околофутбола. Кем бы они ни были в обычной жизни - студентами или банкирами, музыкантами или автомеханиками, на самом деле все они - одна «фирма». Попасть в «фирму» очень сложно, но если ты в ней оказался - это на всю жизнь. И обратного пути нет.

Автор рипа: stalkerok
Сэмпл
Качество видео: BDRip-AVC [Околофутбола (2013) Blu-ray Disc [GER] -CDP]
Формат видео: MKV
Видео: 1057 Кбит/сек, 748x314 (2.40:1), 25 кадр/сек, AVC
Аудио: 64,0 Кбит/сек, 48,0 КГц / 24,0 КГц, 2 канала, AAC (HE-AAC / LC) [Blu-ray GER]
Навигация по главам: есть

Сравнение Blu-ray RUS (16:9) vs Blu-ray GER (2.40:1)

Blu-ray RUS (16:9)

Blu-ray GER (2.40:1)

x264/MediaInfo

---[Information] [03.02.2018 23:12:29] x264 [info]: frame I:1220 Avg QP:17.83 size: 32787
---[Information] [03.02.2018 23:12:29] x264 [info]: frame P:36932 Avg QP:21.71 size: 10230
---[Information] [03.02.2018 23:12:29] x264 [info]: frame B:101278 Avg QP:24.01 size: 3149
Общее
Уникальный идентификатор : 238353692497802398612792068820489710550 (0xB351405A06802F62A0656B115CC3ABD6)
Полное имя : M:\$oldrerips\okolofytbola\Okolofutbola.2013.BDRip-AVC.RUS..stalkerok.new-team.mkv
Формат : Matroska
Версия формата : Version 4 / Version 2
Размер файла : 746 Мбайт
Продолжительность : 1 ч. 32 м.
Общий поток : 1123 Кбит/сек
Название фильма : Околофутбола (2013) (Rip by stalkerok)
Дата кодирования : UTC 2018-02-04 09:26:44
Программа кодирования : mkvmerge v8.6.1 ('Flying') 64bit
Библиотека кодирования : libebml v1.3.3 + libmatroska v1.4.4
Видео
Идентификатор : 1
Формат : AVC
Формат/Информация : Advanced Video Codec
Профиль формата : High@L4.1
Параметр CABAC формата : Да
Параметр ReFrames формата : 12 кадров
Идентификатор кодека : V_MPEG4/ISO/AVC
Продолжительность : 1 ч. 32 м.
Битрейт : 1057 Кбит/сек
Ширина : 748 пикселей
Высота : 314 пикселей
Соотношение сторон : 2,40:1
Режим частоты кадров : Постоянный
Частота кадров : 25,000 кадров/сек
Цветовое пространство : YUV
Субдискретизация насыщенности : 4:2:0
Битовая глубина : 8 бит
Тип развёртки : Прогрессивная
Бит/(Пиксели*Кадры) : 0.180
Размер потока : 703 Мбайт (94%)
Заголовок : Околофутбола (2013) (Rip by stalkerok)
Библиотека кодирования : x264 core 152 r2851kMod ba24899
Настройки программы : cabac=1 / ref=12 / deblock=1:-3:-2 / analyse=0x3:0x133 / me=umh / subme=11 / psy=1 / fade_compensate=0.00 / psy_rd=1.00:0.00 / mixed_ref=1 / me_range=32 / chroma_me=1 / trellis=2 / 8x8dct=1 / cqm=0 / deadzone=21,11 / fast_pskip=0 / chroma_qp_offset=-2 / threads=10 / lookahead_threads=2 / sliced_threads=0 / nr=0 / decimate=0 / interlaced=0 / bluray_compat=0 / constrained_intra=0 / bframes=16 / b_pyramid=2 / b_adapt=2 / b_bias=0 / direct=3 / weightb=1 / open_gop=0 / weightp=2 / keyint=250 / keyint_min=25 / scenecut=40 / intra_refresh=0 / rc_lookahead=60 / rc=2pass / mbtree=0 / bitrate=1057 / ratetol=1.0 / qcomp=0.65 / qpmin=0 / qpmax=69 / qpstep=4 / cplxblur=20.0 / qblur=0.5 / vbv_maxrate=50000 / vbv_bufsize=62500 / nal_hrd=none / filler=0 / ip_ratio=1.40 / pb_ratio=1.30 / aq=3:0.95 / zones=135740,139429,q=36
Default : Да
Forced : Нет
Аудио
Идентификатор : 2
Формат : AAC
Формат/Информация : Advanced Audio Codec
Профиль формата : HE-AAC / LC
Идентификатор кодека : A_AAC
Продолжительность : 1 ч. 32 м.
Битрейт : 64,0 Кбит/сек
Каналы : 2 канала
Расположение каналов : Front: L R
Частота : 48,0 КГц / 24,0 КГц
Частота кадров : 23,438 кадра/сек (1024 spf)
Метод сжатия : С потерями
Задержка видео : 31 мс.
Размер потока : 42,6 Мбайт (6%)
Язык : Russian
Default : Нет
Forced : Нет
Меню
00:00:00.000 : en:Chapter 1
00:08:13.560 : en:Chapter 2
00:22:13.920 : en:Chapter 3
00:35:02.680 : en:Chapter 4
00:47:32.680 : en:Chapter 5
01:02:33.240 : en:Chapter 6
01:12:32.760 : en:Chapter 7
01:24:14.680 : en:Chapter 8

Скриншоты

[cybertorrent.ru].t144.torrent 
Торрент: Зарегистрирован [ 2018-02-15 13:57 ] · 4E049FEC269454CF95AD863818EF338CC8C18EA4

Скачать .torrent

Скачать

15 KB

Статус: проверено
Скачан: 0 раз
Размер: 746 MB
Профиль [ЛС]
Показать сообщения:    

Текущее время: 26-Май 15:18

Часовой пояс: UTC ± 0



Вы не можете начинать темы
Вы не можете отвечать на сообщения
Вы не можете редактировать свои сообщения
Вы не можете удалять свои сообщения
Вы не можете голосовать в опросах
Вы не можете прикреплять файлы к сообщениям
Вы можете скачивать файлы