Статистика раздачи
Размер:  1,39 GB   |    Зарегистрирован:  6 месяцев 25 дней   |    Скачан:  0 раз

Полного источника не было: Никогда

   
 

serzh ®

Пол:
Не указан
Стаж:
7 месяцев 7 дней
Сообщений:
384

Кошмар на улице Вязов 2: Месть Фредди / A Nightmare on Elm Street Part 2: Freddy's Revenge
[FullScreen]
«Someone is coming back to Elm Street!»
Страна: США
Жанр: Ужасы
Год выпуска: 1985
Продолжительность: 01:25:33
Перевод: Одноголосый закадровый Сергей Белов (Зереницын)
Субтитры: нет
Оригинальная аудиодорожка: английский
Режиссер: Джек Шолдер / Jack Sholder
В ролях: Марк Паттон, Ким Майерс, Роберт Раслер, Клу Гулагер, Хоуп Лэнг, Роберт Инглунд,
Маршалл Белл, Мелинда О. Фи, Том МакФедден, Сидни Уолш
Описание: Спустя пять лет в дом, где подростков преследовали кошмары с кровавым убийцей,
въезжает новая семья, ничего не подозревающая о дурной славе этого коттеджа. Фрэдди Крюгер
вновь возникает в снах юного Джесси Уэлма и пытается завладеть не только его мозгом, но и
телом. Подружка Джесси, Лиза, надеется помочь ему избавиться от навязчивого видения.
Замечательные спецэффекты и пиротехника обеспечили фильму кассовый успех.
Доп. информация: Дорожка с С. Беловым синхронизирована и наложена ale_x2008 при помощи Adobe Audition, Sony Vegas и VirtualDubMod.
За оцифрованную с VHS дорожку благодарим - vr666 и m.mamichev

Релиз
Сэмпл: https://yadi.sk/i/MxIPqimChmeGGg
Качество видео: DVDRip
Формат видео: AVI
Видео: XviD build 73, 640x480 (1.33:1), 23.976 fps, 1923 kbps avg, 0.26 bit/pixel
Аудио: AC3 Dolby Digital, 48000Hz, 2/0 (L,R) ch (mono), 192 kbps avg
Аудио 2: AC3 Dolby Digital, 48000Hz, 2/0 (L,R) ch, 192 kbps avg

MediaInfo

Кошмар на улице Вязов 2 Месть Фредди - A Nightmare on Elm Street Part 2 FS [by ale_x2008].avi
Format : AVI
Format/Info : Audio Video Interleave
File size : 1.39 GiB
Duration : 1 h 25 min
Overall bit rate : 2 322 kb/s
Movie name : Кошмар на улице Вязов 2 Месть Фредди - A Nightmare on Elm Street Part 2 FS [by ale_x2008]
Director : by ale_x2008
Writing application : VirtualDubMod 1.5.10.2 (build 2540/release)
Copyright : Edich2
Comment : RuTracker.org
Video
ID : 0
Format : MPEG-4 Visual
Format profile : Advanced Simple@L5
Format settings : BVOP1 / Custom Matrix
Format settings, BVOP : 1
Format settings, QPel : No
Format settings, GMC : No warppoints
Format settings, Matrix : Custom
Codec ID : XVID
Codec ID/Hint : XviD
Duration : 1 h 25 min
Bit rate : 1 924 kb/s
Width : 640 pixels
Height : 480 pixels
Display aspect ratio : 4:3
Frame rate : 23.976 (24000/1001) FPS
Color space : YUV
Chroma subsampling : 4:2:0
Bit depth : 8 bits
Scan type : Progressive
Compression mode : Lossy
Bits/(Pixel*Frame) : 0.261
Stream size : 1.15 GiB (83%)
Writing library : XviD 73
Audio #1
ID : 1
Format : AC-3
Format/Info : Audio Coding 3
Codec ID : 2000
Duration : 1 h 25 min
Bit rate mode : Constant
Bit rate : 192 kb/s
Channel(s) : 2 channels
Channel positions : Front: L R
Sampling rate : 48.0 kHz
Frame rate : 31.250 FPS (1536 SPF)
Bit depth : 16 bits
Compression mode : Lossy
Stream size : 117 MiB (8%)
Alignment : Split accross interleaves
Interleave, duration : 42 ms (1.00 video frame)
Interleave, preload duratio : 500 ms
Service kind : Complete Main
Audio #2
ID : 2
Format : AC-3
Format/Info : Audio Coding 3
Codec ID : 2000
Duration : 1 h 25 min
Bit rate mode : Constant
Bit rate : 192 kb/s
Channel(s) : 2 channels
Channel positions : Front: L R
Sampling rate : 48.0 kHz
Frame rate : 31.250 FPS (1536 SPF)
Bit depth : 16 bits
Compression mode : Lossy
Stream size : 117 MiB (8%)
Alignment : Split accross interleaves
Interleave, duration : 42 ms (1.00 video frame)
Interleave, preload duratio : 500 ms
Service kind : Complete Main

Скриншоты


[cybertorrent.ru].t1440.torrent 
Торрент: Зарегистрирован [ 2019-03-25 15:37 ] · D830C7AAF1E2BE6FC74134BB7D2556712709688F

Скачать .torrent

Скачать

14 KB

Статус: проверено
Скачан: 0 раз
Размер: 1,39 GB
terms.php
Профиль ЛС
Показать сообщения:    

Текущее время: 20-Окт 11:20

Часовой пояс: UTC ± 0



Вы не можете начинать темы
Вы не можете отвечать на сообщения
Вы не можете редактировать свои сообщения
Вы не можете удалять свои сообщения
Вы не можете голосовать в опросах
Вы не можете прикреплять файлы к сообщениям
Вы можете скачивать файлы